<?xml version="1.0" standalone="no"?>
<!DOCTYPE svg PUBLIC "-//W3C//DTD SVG 1.1//EN" "http://www.w3.org/Graphics/SVG/1.1/DTD/svg11.dtd" >
<svg xmlns="http://www.w3.org/2000/svg" xmlns:xlink="http://www.w3.org/1999/xlink" version="1.1">
<metadata>
Created by FontForge 20191125 at Sun Jun  8 19:28:45 2008
 By convertio
Copyright (c) 2008 by Jos Buivenga. All rights reserved.
</metadata>
<defs>
<font id="Anivers-Regular" horiz-adv-x="550" >
  <font-face 
    font-family="Anivers"
    font-weight="400"
    font-stretch="normal"
    units-per-em="1000"
    panose-1="2 0 0 0 0 0 0 0 0 0"
    ascent="755"
    descent="-245"
    x-height="494"
    cap-height="681"
    bbox="-125 -237 1109 882"
    underline-thickness="54"
    underline-position="-56"
    unicode-range="U+0020-FB04"
  />
<missing-glyph horiz-adv-x="274" 
 />
    <glyph glyph-name="f_f" unicode="ff" horiz-adv-x="605" 
d="M101 -189v611h-65l-5 5v62l5 5h65v68q0 79 49 121.5t122 42.5q75 0 132 -44q23 39 66 60t93 21q54 0 98 -23l1 -7l-38 -55l-7 -2q-24 11 -54 11q-43 0 -72 -21.5t-29 -62.5v-109h157l5 -5l-19 -62l-7 -5h-136v-541l-20 -101l-6 -7l-49 29l-5 9v612h-201v-542l-20 -101
l-6 -7l-49 29zM181 494h201v100q-5 8 -14 18.5t-36 24t-60 13.5q-42 0 -66.5 -21t-24.5 -63v-72z" />
    <glyph glyph-name="fi" unicode="fi" horiz-adv-x="523" 
d="M101 -189v611h-65l-5 5v62l5 5h65v105q0 78 53.5 121t127.5 43q81 0 148 -56l1 -7l-44 -50l-8 1q-45 36 -97 36q-43 0 -72 -21.5t-29 -62.5v-109h226l35 5l5 -4v-490l-5 -5h-70l-5 5v417h-186v-541l-20 -101l-6 -7l-49 29z" />
    <glyph glyph-name="fl" unicode="fl" horiz-adv-x="555" 
d="M101 -189v611h-65l-5 5v62l5 5h65v105q0 78 53.5 121t127.5 43t130 -43l45 7l5 -4v-610q0 -26 14 -35.5t31 -9.5h4l4 -5l-11 -63l-5 -5h-8q-15 0 -29.5 3.5t-34.5 13.5t-32.5 34.5t-12.5 61.5v536q-38 43 -100 43q-43 0 -72 -21.5t-29 -62.5v-109h167l5 -5l-19 -62l-7 -5
h-146v-541l-20 -101l-6 -7l-49 29z" />
    <glyph glyph-name="f_f_i" unicode="ffi" horiz-adv-x="824" 
d="M101 -189v611h-65l-5 5v62l5 5h65v68q0 79 49 121.5t122 42.5q75 0 132 -44q23 39 66 60t93 21q81 0 148 -56l1 -7l-44 -50l-8 1q-45 36 -97 36q-43 0 -72 -21.5t-29 -62.5v-109h246l35 5l5 -4v-490l-5 -5h-70l-5 5v417h-206v-541l-20 -101l-6 -7l-49 29l-5 9v611h-201
v-541l-20 -101l-6 -7l-49 29zM181 494h201v100q-5 8 -14 18.5t-36 24t-60 13.5q-42 0 -66.5 -21t-24.5 -63v-72z" />
    <glyph glyph-name="f_f_l" unicode="ffl" horiz-adv-x="836" 
d="M101 -189v611h-65l-5 5v62l5 5h65v68q0 79 49 121.5t122 42.5q75 0 132 -44q23 39 66 60t93 21q74 0 130 -43l45 7l5 -4v-610q0 -26 14 -35.5t31 -9.5h4l4 -5l-11 -63l-5 -5h-8q-15 0 -29.5 3.5t-34.5 13.5t-32.5 34.5t-12.5 61.5v536q-38 43 -100 43q-43 0 -72 -21.5
t-29 -62.5v-109h152l5 -5l-19 -62l-7 -5h-131v-541l-20 -101l-6 -7l-49 29l-5 9v611h-201v-541l-20 -101l-6 -7l-49 29zM181 494h201v100q-5 8 -14 18.5t-36 24t-60 13.5q-42 0 -66.5 -21t-24.5 -63v-72z" />
    <glyph glyph-name="f_j" unicode="fj" horiz-adv-x="523" 
d="M101 -189v611h-65l-5 5v62l5 5h65v105q0 78 53.5 121t127.5 43q81 0 148 -56l1 -7l-44 -50l-8 1q-45 36 -97 36q-43 0 -72 -21.5t-29 -62.5v-109h226l35 5l5 -4v-534q0 -87 -43.5 -136.5t-118.5 -49.5q-32 0 -62 10l-4 5l13 64l4 2q22 -9 45 -9q33 0 59.5 30t26.5 90v455
h-186v-541l-20 -101l-6 -7l-49 29z" />
    <glyph glyph-name=".notdef" horiz-adv-x="274" 
 />
    <glyph glyph-name=".null" horiz-adv-x="0" 
 />
    <glyph glyph-name="nonmarkingreturn" horiz-adv-x="333" 
 />
    <glyph glyph-name="space" unicode=" " horiz-adv-x="249" 
 />
    <glyph glyph-name="exclam" unicode="!" horiz-adv-x="287" 
d="M117 186l-5 5l-21 516l5 6l92 12l6 -4l-19 -530l-5 -5h-53zM94 5v91l5 5h89l5 -5v-91l-5 -5h-89z" />
    <glyph glyph-name="quotedbl" unicode="&#x22;" horiz-adv-x="346" 
d="M222 496l-5 5l-11 169l5 5h78l5 -5l-10 -169l-5 -5h-57zM68 496l-5 5l-11 169l5 5h78l5 -5l-10 -169l-5 -5h-57z" />
    <glyph glyph-name="numbersign" unicode="#" horiz-adv-x="670" 
d="M120 5l32 174h-102l-5 5v59l5 5h115l33 177h-99l-5 5v59l5 5h112l32 171l6 6l64 10l6 -5l-34 -182h151l32 171l6 6l64 10l6 -5l-34 -182h121l4 -5l-17 -59l-7 -5h-114l-33 -177h118l4 -5l-17 -59l-7 -5h-111l-32 -174l-6 -5h-64l-4 5l32 174h-151l-32 -174l-6 -5h-64z
M239 248h151l33 177h-151z" />
    <glyph glyph-name="dollar" unicode="$" horiz-adv-x="491" 
d="M53 47l-2 5l34 53l8 1q47 -38 126 -41v177q-36 12 -57.5 22t-47 27.5t-37.5 43t-12 59.5q0 59 44 96.5t110 47.5v67l5 6l48 7l5 -4v-74q36 -2 70.5 -11t51.5 -16t23 -12l1 -5l-31 -55l-7 -1q-38 25 -108 28v-164q36 -12 59 -22.5t49 -29t39 -46t13 -63.5q0 -67 -46 -102
t-114 -44v-70l-5 -5h-48l-5 5v66q-95 4 -166 54zM219 324v141q-74 -13 -74 -69q0 -26 19 -42t55 -30zM277 68q80 11 80 75q0 28 -20.5 46t-59.5 33v-154z" />
    <glyph glyph-name="percent" unicode="%" horiz-adv-x="705" 
d="M177 365q-53 0 -86 28t-33 79v102q0 51 33 79.5t86 28.5t85.5 -28.5t32.5 -79.5v-102q0 -51 -32.5 -79t-85.5 -28zM60 5l504 674l7 2l62 -19l2 -5l-490 -655l-6 -2h-77zM177 423q59 0 59 60v82q0 58 -59 58q-60 0 -60 -58v-82q0 -60 60 -60zM411 97v101q0 52 33 80t86 28
q54 0 87 -28t33 -80v-101q0 -51 -33.5 -80t-86.5 -29t-86 29t-33 80zM470 105q0 -58 60 -58q59 0 59 58v83q0 59 -59 59q-60 0 -60 -59v-83z" />
    <glyph glyph-name="ampersand" unicode="&#x26;" horiz-adv-x="598" 
d="M57 200q0 59 27.5 102.5t77.5 52.5q-40 18 -64 56.5t-24 88.5q0 92 60.5 133.5t159.5 41.5h64l4 -5l-11 -62l-6 -5h-51q-140 0 -140 -102q0 -58 34 -82t111 -24h82l9 101l5 6l57 8l5 -4v-111h101l5 -5l-19 -62l-7 -5h-80v-307l-5 -6q-71 -22 -165 -22q-96 0 -163 52.5
t-67 159.5zM137 201q0 -69 45.5 -105t106.5 -36q17 0 39 3t36 5l13 3v252h-78q-76 0 -119 -33.5t-43 -88.5z" />
    <glyph glyph-name="quotesingle" unicode="'" horiz-adv-x="192" 
d="M68 496l-5 5l-11 169l5 5h78l5 -5l-10 -169l-5 -5h-57z" />
    <glyph glyph-name="parenleft" unicode="(" horiz-adv-x="282" 
d="M200 -130q-6 4 -15 12t-32.5 41t-41.5 75t-32.5 117.5t-14.5 163.5t14 162.5t34 117.5t40 74t34 43l14 11h7l40 -44l-1 -7q-4 -4 -11 -12.5t-24.5 -39.5t-31 -68.5t-24.5 -101t-11 -135.5t10.5 -135.5t26 -102.5t30.5 -67.5t25 -40.5l11 -12l-1 -7l-39 -43z" />
    <glyph glyph-name="parenright" unicode=")" horiz-adv-x="282" 
d="M35 -79q4 4 11 12.5t25 39.5t31.5 68.5t24.5 101.5t11 136t-10.5 135t-25.5 102t-30 67.5t-26 40.5l-10 12l-1 7l40 44h7q6 -4 15 -12t32.5 -41.5t41.5 -75t32.5 -116.5t14.5 -163t-14 -163t-34 -118.5t-40 -74t-34 -41.5l-14 -12l-7 1l-39 43z" />
    <glyph glyph-name="asterisk" unicode="*" horiz-adv-x="542" 
d="M320 446v8q23 39 61 39q25 0 53 -16l58 -34l2 -7l-21 -58l-6 -3l-104 60q-22 12 -34 12q-6 0 -9 -1zM257 512q-76 0 -76 87v67l5 6l61 11l5 -4v-120q0 -33 12 -43zM312 497l-6 4q-12 20 -12 41q0 40 49 69l58 34l7 -2l40 -47l-1 -7l-104 -60q-27 -16 -31 -32zM110 453
l-58 34l-2 7l21 58l6 3l104 -60q23 -13 34 -13q3 0 9 2v-8q-23 -39 -61 -39q-26 0 -53 16zM136 287l-40 47l1 7l104 60q27 16 31 32l6 -4q12 -20 12 -41q0 -40 -49 -69l-58 -34zM292 251v120q0 33 -12 43l7 4q76 0 76 -87v-67l-5 -6l-61 -11z" />
    <glyph glyph-name="plus" unicode="+" 
d="M228 61v161h-129l-5 5v63l5 5h129v143l5 6l70 10l5 -4v-155h145l4 -5l-16 -63l-6 -5h-127v-161l-5 -5h-70z" />
    <glyph glyph-name="comma" unicode="," horiz-adv-x="247" 
d="M32 -110l42 209l6 5h105l3 -5l-106 -224l-7 -4l-39 12z" />
    <glyph glyph-name="hyphen" unicode="-" horiz-adv-x="425" 
d="M88 219l-5 5v70l5 5h257l4 -5l-18 -70l-6 -5h-237z" />
    <glyph glyph-name="period" unicode="." horiz-adv-x="236" 
d="M67 5v94l5 5h92l5 -5v-94l-5 -5h-92z" />
    <glyph glyph-name="slash" unicode="/" horiz-adv-x="346" 
d="M35 -70l195 735l5 6l70 10l6 -4l-199 -746l-6 -6h-68z" />
    <glyph glyph-name="zero" unicode="0" horiz-adv-x="570" 
d="M67 182v160q0 97 63.5 145.5t154.5 48.5t154.5 -48.5t63.5 -145.5v-160q0 -97 -63.5 -145.5t-154.5 -48.5t-154.5 48.5t-63.5 145.5zM147 199q0 -68 38 -103.5t100 -35.5t100 35.5t38 103.5v126q0 68 -38 103.5t-100 35.5t-100 -35.5t-38 -103.5v-126z" />
    <glyph glyph-name="one" unicode="1" horiz-adv-x="438" 
d="M41 5v62l5 5h140v380h-95l-6 5l-18 62l4 5h190l5 -5v-447h146l4 -5l-18 -62l-6 -5h-346z" />
    <glyph glyph-name="two" unicode="2" horiz-adv-x="515" 
d="M77 5l-9 44q41 22 83.5 51t92.5 70.5t81.5 92t31.5 97.5t-30 74.5t-83 27.5q-40 0 -75.5 -20t-50.5 -40l-16 -20h-7l-53 36l-1 8q3 4 8 11.5t24 26.5t41 33.5t59.5 26.5t78.5 12q83 0 136.5 -44.5t53.5 -126.5q0 -45 -19.5 -89.5t-44.5 -74.5t-55.5 -56t-47.5 -36.5
t-24 -14.5l-42 -22h253l4 -5l-17 -62l-6 -5h-361z" />
    <glyph glyph-name="three" unicode="3" horiz-adv-x="521" 
d="M25 -35l51 36h7q2 -4 6 -9.5t19 -20.5t31.5 -26.5t43.5 -21t56 -9.5q58 0 100 34t42 91v14q0 56 -43.5 87t-122.5 31h-44l-4 5l17 62l6 5h25q149 0 149 110q0 56 -36.5 83.5t-93.5 27.5q-27 0 -51 -7.5t-40 -18t-27.5 -21.5t-17.5 -19l-5 -7h-8l-50 36l-1 7q2 4 7 11
t23 24.5t39.5 31t56.5 24.5t74 11q94 0 152 -48.5t58 -134.5q0 -46 -24.5 -88.5t-65.5 -59.5q49 -16 78 -54t29 -84v-38q0 -85 -65 -136t-154 -51q-44 0 -83 12t-62.5 28.5t-41 33.5t-24.5 29l-7 12z" />
    <glyph glyph-name="four" unicode="4" horiz-adv-x="537" 
d="M39 35l-15 49l311 431l6 4l58 10l5 -4v-423h124l4 -5l-18 -62l-6 -5h-104v-176l-5 -6l-70 -10l-5 4v188h-280zM127 102h197v241l2 35l-17 -30l-167 -228z" />
    <glyph glyph-name="five" unicode="5" horiz-adv-x="488" 
d="M1 -38l51 36h7q2 -4 6 -9.5t19 -20.5t31.5 -26.5t44 -21t57.5 -9.5q56 0 98.5 34t42.5 90v30q0 56 -42.5 89.5t-98.5 33.5q-30 0 -59 -7t-43 -13l-14 -7h-5l-31 43v315l6 5h331l4 -5l-18 -62l-6 -5h-237v-200q36 8 74 8q88 0 153.5 -50t65.5 -135v-51q0 -84 -65.5 -134.5
t-153.5 -50.5q-44 0 -82.5 12t-62.5 28.5t-41.5 33.5t-24.5 29l-8 12z" />
    <glyph glyph-name="six" unicode="6" horiz-adv-x="564" 
d="M79 182v307q0 85 65 140.5t157 55.5q39 0 74 -11.5t56.5 -27.5t38 -32t23.5 -28l7 -11v-7l-52 -37h-8q-1 2 -6.5 10t-18 20.5t-28 23.5t-38.5 19.5t-48 8.5q-59 0 -100.5 -33.5t-41.5 -105.5v-75l-6 -47q2 5 5.5 12t15 19t27 21.5t42 17t58.5 7.5q87 0 148.5 -48.5
t61.5 -147.5v-51q0 -98 -62.5 -146t-153.5 -48t-153.5 48t-62.5 146zM159 199q0 -68 38 -103.5t98 -35.5q61 0 98.5 35t37.5 104v16q0 68 -37.5 104t-96.5 36q-88 0 -138 -32v-124z" />
    <glyph glyph-name="seven" unicode="7" horiz-adv-x="455" 
d="M81 -136l250 588h-288l-6 4l-20 63l3 5h395l4 -5l9 -39l-271 -635l-6 -3l-67 17z" />
    <glyph glyph-name="eight" unicode="8" horiz-adv-x="554" 
d="M61 182q0 53 28.5 100t76.5 63q-38 15 -64 56.5t-26 91.5q0 93 54 142.5t148 49.5q92 0 145.5 -49.5t53.5 -142.5q0 -50 -25.5 -92t-63.5 -56q48 -16 76 -63t28 -100q0 -97 -61.5 -145.5t-152.5 -48.5t-154 48.5t-63 145.5zM278 377q56 0 88 31.5t32 84.5q0 56 -31.5 88
t-88.5 32q-58 0 -90 -32t-32 -88q0 -53 32 -84.5t90 -31.5zM141 183q0 -58 38.5 -90.5t98.5 -32.5q59 0 96.5 33t37.5 90q0 56 -38 91t-96 35q-59 0 -98 -35t-39 -91z" />
    <glyph glyph-name="nine" unicode="9" horiz-adv-x="565" 
d="M64 -41l52 37h8q2 -3 6 -8.5t17.5 -20t28.5 -25t38.5 -19.5t48.5 -9q59 0 100.5 33.5t41.5 105.5v72l6 46q-1 -3 -4 -8t-14.5 -18.5t-26.5 -23.5t-42.5 -18t-60.5 -8q-87 0 -148.5 48.5t-61.5 147.5v51q0 98 62.5 146t153.5 48t153.5 -48t62.5 -146v-304
q0 -85 -65 -140.5t-157 -55.5q-39 0 -74 11.5t-56.5 27.5t-38 32t-23.5 27l-7 12v7zM267 169q88 0 138 32v124q0 68 -38 103.5t-98 35.5q-61 0 -98.5 -35t-37.5 -104v-16q0 -68 37.5 -104t96.5 -36z" />
    <glyph glyph-name="colon" unicode=":" horiz-adv-x="236" 
d="M72 390l-5 5v94l5 5h92l5 -5v-94l-5 -5h-92zM67 5v94l5 5h92l5 -5v-94l-5 -5h-92z" />
    <glyph glyph-name="semicolon" unicode=";" horiz-adv-x="247" 
d="M78 390l-5 5v94l5 5h92l5 -5v-94l-5 -5h-92zM32 -110l42 209l6 5h105l3 -5l-106 -224l-7 -4l-39 12z" />
    <glyph glyph-name="less" unicode="&#x3c;" 
d="M59 203l-3 8l16 77l6 6l391 204l5 -4v-71l-5 -7l-331 -172l331 -164l5 -7v-71l-5 -4z" />
    <glyph glyph-name="equal" unicode="=" 
d="M99 310l-5 5v63l5 5h354l4 -5l-17 -63l-6 -5h-335zM99 134l-5 5v63l5 5h332l4 -5l-17 -63l-6 -5h-313z" />
    <glyph glyph-name="greater" unicode="&#x3e;" 
d="M76 1v71l5 7l331 172l-331 164l-5 7v71l5 4l410 -205l3 -8l-16 -77l-6 -6l-391 -204z" />
    <glyph glyph-name="question" unicode="?" horiz-adv-x="492" 
d="M189 191v150l5 6l68 11q40 7 62 37.5t22 76.5v71q0 53 -29.5 81t-83.5 28q-55 0 -86.5 -27t-31.5 -82l-6 -4l-69 15l-5 6q0 81 56 126.5t142 45.5t141.5 -45.5t55.5 -126.5v-105q0 -74 -47 -121t-122 -55l-3 -88l-5 -5h-59zM174 5v91l5 5h89l5 -5v-91l-5 -5h-89z" />
    <glyph glyph-name="at" unicode="@" horiz-adv-x="902" 
d="M65 157v55q0 220 99.5 346.5t301.5 126.5q190 0 283 -88t93 -271v-64q0 -143 -65.5 -219t-205.5 -88l-8 4l-41 108q-1 -3 -3.5 -8.5t-13.5 -19t-25.5 -24t-41.5 -19t-59 -8.5q-65 0 -100 45t-35 107q0 183 62.5 274.5t157.5 91.5q36 0 79 -9.5t69 -18.5l25 -10l5 -7
l-44 -358l22 -75q72 22 107 80.5t35 161.5v46q0 158 -73.5 227.5t-222.5 69.5q-161 0 -241 -108t-80 -300v-39q0 -159 71 -228.5t218 -70.5l3 -7l-13 -62l-6 -4q-174 0 -263.5 90.5t-89.5 272.5zM326 159q0 -99 83 -99q18 0 45.5 8t45.5 16l19 7l37 320q-38 22 -93 22
q-50 0 -93.5 -65.5t-43.5 -208.5z" />
    <glyph glyph-name="A" unicode="A" horiz-adv-x="590" 
d="M12 5l233 660l6 5l84 11l6 -4l237 -672l-3 -5h-80l-6 5l-55 161h-279l-54 -161l-5 -5h-81zM181 242h228l-104 308l-10 43l-10 -43z" />
    <glyph glyph-name="B" unicode="B" horiz-adv-x="581" 
d="M93 5v665l5 5h182q219 0 219 -171q0 -49 -24 -87t-69 -54q52 -17 81.5 -60.5t29.5 -103.5q0 -98 -63.5 -148.5t-155.5 -50.5h-200zM177 399h104q134 0 134 100q0 57 -36.5 78t-97.5 21h-104v-199zM177 77h110q61 0 103 29.5t42 92.5t-42 93t-103 30h-110v-245z" />
    <glyph glyph-name="C" unicode="C" horiz-adv-x="627" 
d="M71 233v204q0 119 71 183.5t191 64.5q83 0 145 -36t89 -102l-3 -6l-67 -28l-7 2q-20 42 -62 66t-95 24q-79 0 -127.5 -45.5t-48.5 -129.5v-188q0 -86 48 -130t128 -44q126 0 169 93l7 2l65 -25l3 -6q-25 -71 -88 -107.5t-156 -36.5q-121 0 -191.5 63.5t-70.5 181.5z" />
    <glyph glyph-name="D" unicode="D" horiz-adv-x="656" 
d="M93 5v665l5 5h224q120 0 191.5 -64.5t71.5 -183.5v-182q0 -118 -71 -181.5t-192 -63.5h-224zM177 80h145q80 0 128.5 44t48.5 130v166q0 84 -49 129.5t-128 45.5h-145v-515z" />
    <glyph glyph-name="E" unicode="E" horiz-adv-x="513" 
d="M93 5v665l5 5h347l5 -5v-70l-5 -5h-268v-200h233l4 -5l-18 -70l-6 -5h-213v-235h269l4 -5l-10 -70l-6 -5h-336z" />
    <glyph glyph-name="F" unicode="F" horiz-adv-x="483" 
d="M93 5v665l5 5h337l5 -5v-70l-5 -5h-258v-210h243l4 -5l-18 -70l-6 -5h-223v-300l-5 -5h-74z" />
    <glyph glyph-name="G" unicode="G" horiz-adv-x="653" 
d="M71 233v204q0 119 71 183.5t191 64.5q83 0 145 -36t89 -102l-3 -6l-67 -28l-7 2q-20 42 -62 66t-95 24q-79 0 -127.5 -45.5t-48.5 -129.5v-188q0 -86 48 -130t128 -44q81 0 129.5 44t48.5 130v23h-115l-6 5l-10 70l4 5h206l5 -5v-107q0 -119 -69.5 -182t-192.5 -63
q-121 0 -191.5 63.5t-70.5 181.5z" />
    <glyph glyph-name="H" unicode="H" horiz-adv-x="711" 
d="M93 5v660l5 6l74 10l5 -4v-283h356v271l5 6l74 10l5 -4v-672l-5 -5h-74l-5 5v309h-356v-309l-5 -5h-74z" />
    <glyph glyph-name="I" unicode="I" horiz-adv-x="271" 
d="M93 5v660l5 6l74 10l5 -4v-672l-5 -5h-74z" />
    <glyph glyph-name="J" unicode="J" horiz-adv-x="377" 
d="M5 24l-1 7l30 62l8 1q34 -26 73 -26q32 0 60 26.5t28 83.5v487l5 6l74 10l5 -4v-507q0 -83 -46 -132.5t-121 -49.5q-68 0 -115 36z" />
    <glyph glyph-name="K" unicode="K" horiz-adv-x="594" 
d="M93 5v660l5 6l74 10l5 -4v-283h47l8 4l208 266l8 5l105 12l4 -5l-238 -288l-29 -29l29 -32l158 -210q31 -42 79 -42q8 0 12 1l4 -5l-11 -68l-6 -5q-6 -1 -18 -1q-75 0 -134 82l-175 237l-8 4h-43v-315l-5 -5h-74z" />
    <glyph glyph-name="L" unicode="L" horiz-adv-x="474" 
d="M93 5v660l5 6l74 10l5 -4v-597h288l4 -5l-18 -70l-6 -5h-347z" />
    <glyph glyph-name="M" unicode="M" horiz-adv-x="809" 
d="M93 5v660l5 6l75 10l6 -4l225 -409l219 398l5 6l82 9l5 -4v-672l-5 -5h-74l-3 5v528l-25 -55l-162 -290l-6 -5h-72l-6 5l-162 290l-23 55v-528l-5 -5h-74z" />
    <glyph glyph-name="N" unicode="N" horiz-adv-x="707" 
d="M93 5v660l5 6l74 10l7 -4l324 -488l26 -48v524l5 6l74 10l5 -4v-672l-5 -5h-71l-8 5l-326 492l-26 48v-540l-5 -5h-74z" />
    <glyph glyph-name="O" unicode="O" horiz-adv-x="668" 
d="M71 233v204q0 119 71.5 183.5t191.5 64.5t191.5 -64.5t71.5 -183.5v-204q0 -118 -71 -181.5t-192 -63.5t-192 63.5t-71 181.5zM157 242q0 -86 48.5 -130t128.5 -44t128.5 44t48.5 130v188q0 84 -49 129.5t-128 45.5t-128 -45.5t-49 -129.5v-188z" />
    <glyph glyph-name="P" unicode="P" horiz-adv-x="554" 
d="M93 5v665l5 5h176q102 0 158 -33q84 -49 84 -168q0 -94 -57 -155.5t-166 -61.5q-97 0 -121 58l5 -40v-270l-5 -5h-74zM177 349q49 -17 95 -17q71 0 114 35t43 105q0 126 -155 126h-97v-249z" />
    <glyph glyph-name="Q" unicode="Q" horiz-adv-x="668" 
d="M71 233v204q0 119 71.5 183.5t191.5 64.5t191.5 -64.5t71.5 -183.5v-204q0 -115 -67.5 -178t-181.5 -67q-9 -7 -9 -38q0 -30 16 -47.5t43 -17.5h80l5 -5v-79l-5 -5h-80q-60 0 -92.5 34t-32.5 75q0 58 47 83q-115 4 -182 67.5t-67 177.5zM157 242q0 -86 48.5 -130
t128.5 -44t128.5 44t48.5 130v188q0 84 -49 129.5t-128 45.5t-128 -45.5t-49 -129.5v-188z" />
    <glyph glyph-name="R" unicode="R" horiz-adv-x="583" 
d="M93 5v665l5 5h178q90 0 147 -35q83 -53 83 -164q0 -38 -11 -69.5t-28 -51t-38 -34.5t-41.5 -22t-37.5 -11.5t-28 -5.5l-11 -1l22 -22l117 -141q36 -42 80 -42q2 0 5.5 0.5t5.5 0.5l4 -5l-11 -68l-6 -5q-14 -2 -21 -2q-68 0 -133 83l-156 194l-7 4h-34v-273l-5 -5h-74z
M177 355h98q63 0 105 28.5t42 92.5q0 63 -42.5 92.5t-104.5 29.5h-98v-243z" />
    <glyph glyph-name="S" unicode="S" horiz-adv-x="508" 
d="M50 48l-2 7l41 56l9 1q21 -18 62 -31t75 -13q58 0 94.5 28t36.5 87q0 44 -31 72t-74.5 44t-87.5 35t-75 58.5t-31 100.5q0 87 58 139.5t142 52.5q45 0 86.5 -11t60 -21.5t25.5 -17.5l1 -7l-38 -58l-8 -1q-48 36 -123 36q-58 0 -88 -30t-30 -79q0 -41 31 -67t74.5 -42
t87.5 -35.5t75 -61.5t31 -106q0 -54 -19.5 -93.5t-53 -61t-70 -31.5t-77.5 -10q-40 0 -93 16t-89 44z" />
    <glyph glyph-name="T" unicode="T" horiz-adv-x="497" 
d="M207 5v590h-186l-5 5v70l5 5h469l4 -5l-18 -70l-6 -5h-179v-590l-5 -5h-74z" />
    <glyph glyph-name="U" unicode="U" horiz-adv-x="695" 
d="M86 233v432l5 6l74 10l5 -4v-435q0 -86 49 -130t128 -44q82 0 129.5 44t47.5 130v423l5 6l74 10l5 -4v-444q0 -119 -69 -182t-192 -63q-122 0 -191.5 63t-69.5 182z" />
    <glyph glyph-name="V" unicode="V" horiz-adv-x="594" 
d="M243 13l-230 651l5 6l79 11l6 -4l174 -530l19 -66l18 66l172 516l5 6l87 12l6 -4l-241 -679l-7 -5l-87 14z" />
    <glyph glyph-name="W" unicode="W" horiz-adv-x="870" 
d="M236 13l-222 651l5 6l79 11l6 -4l155 -499l20 -74l15 74l104 371v116l5 6l74 10l5 -4v-140l98 -359l15 -74l18 74l143 485l5 6l88 12l6 -4l-225 -679l-7 -5l-72 14l-6 6l-94 338l-14 67l-14 -67l-100 -353l-7 -5l-74 14z" />
    <glyph glyph-name="X" unicode="X" horiz-adv-x="575" 
d="M27 5l208 340l-189 319l5 6l76 11l6 -3l138 -244l17 -34l16 34l129 229l6 6l91 12l6 -4l-195 -332l206 -340l-3 -5h-90l-6 5l-144 252l-16 34l-17 -34l-143 -252l-6 -5h-91z" />
    <glyph glyph-name="Y" unicode="Y" horiz-adv-x="514" 
d="M215 5v291l-203 367l5 7l84 11l6 -4l134 -266l16 -39l17 39l127 252l5 6l91 12l6 -4l-204 -381v-291l-5 -5h-74z" />
    <glyph glyph-name="Z" unicode="Z" horiz-adv-x="526" 
d="M55 5l-10 49l322 541h-306l-4 5l10 70l6 5h397l5 -5v-49l-321 -541h314l5 -5v-70l-5 -5h-407z" />
    <glyph glyph-name="bracketleft" unicode="[" horiz-adv-x="308" 
d="M92 -113v783l5 5h172l4 -5l-19 -58l-6 -5h-79v-657h79l6 -5l19 -58l-4 -5h-172z" />
    <glyph glyph-name="backslash" unicode="\" horiz-adv-x="342" 
d="M231 -69l-196 735l5 6l61 9l5 -4l201 -747l-3 -5h-67z" />
    <glyph glyph-name="bracketright" unicode="]" horiz-adv-x="308" 
d="M54 -55l6 5h79v657h-79l-6 5l-19 58l4 5h172l5 -5v-783l-5 -5h-172l-4 5z" />
    <glyph glyph-name="asciicircum" unicode="^" horiz-adv-x="503" 
d="M5 265l-3 5l199 394l7 5l82 12l5 -4l206 -407l-3 -5h-75l-5 5l-167 333l-166 -333l-5 -5h-75z" />
    <glyph glyph-name="underscore" unicode="_" horiz-adv-x="556" 
d="M35 -5l5 5h476l5 -5v-63l-5 -5h-476l-5 5v63z" />
    <glyph glyph-name="grave" unicode="`" horiz-adv-x="502" 
d="M264 569l-123 128l5 4h108l7 -4l60 -102l-1 -6l-50 -20h-6z" />
    <glyph glyph-name="a" unicode="a" horiz-adv-x="474" 
d="M40 135q0 70 48 109q47 38 156 38h35q28 0 44 10v47q0 95 -103 95q-62 0 -99 -30l-8 1l-34 50l2 8q55 43 140 43q83 0 132.5 -36.5t49.5 -115.5v-256l25 -88l-5 -6l-61 -9l-6 4l-29 72q-1 -3 -3.5 -9t-12.5 -20t-23.5 -25t-39 -20t-56.5 -9q-62 0 -107 35.5t-45 111.5z
M124 134q0 -33 22 -53.5t59 -20.5q22 0 51.5 7t47.5 15l19 7v169q-15 -50 -88 -50h-24q-34 0 -60.5 -16.5t-26.5 -57.5z" />
    <glyph glyph-name="b" unicode="b" horiz-adv-x="504" 
d="M76 11v700l5 6l70 10l5 -4v-251l-5 -44q35 78 139 78q69 0 111.5 -45.5t42.5 -129.5v-170q0 -82 -51 -127.5t-131 -45.5q-27 0 -56.5 7t-45.5 13l-15 7l-64 -9zM156 78q48 -18 98 -18q51 0 80.5 30.5t29.5 87.5v139q0 61 -30 89t-78 28q-17 0 -100 -23v-333z" />
    <glyph glyph-name="c" unicode="c" horiz-adv-x="472" 
d="M59 161v171q0 78 52 126t143 48q58 0 104 -26t66 -76l-3 -6l-60 -21l-7 2q-29 55 -105 55q-51 0 -80.5 -30.5t-29.5 -87.5v-138q0 -57 29.5 -87.5t80.5 -30.5q81 0 110 53l7 2l60 -21l3 -6q-19 -48 -65 -74t-110 -26q-91 0 -143 47.5t-52 125.5z" />
    <glyph glyph-name="d" unicode="d" horiz-adv-x="507" 
d="M60 164v169q0 82 50.5 127.5t131.5 45.5q62 0 110 -34l-4 44v195l5 6l70 10l5 -4v-625l25 -88l-5 -6l-61 -9l-6 4l-29 72q-11 -34 -44.5 -58.5t-94.5 -24.5q-69 0 -111 46t-42 130zM140 181q0 -62 29.5 -91.5t76.5 -29.5q12 0 37.5 7t44.5 14l20 7v240q0 106 -103 106
q-47 0 -76 -30.5t-29 -86.5v-136z" />
    <glyph glyph-name="e" unicode="e" horiz-adv-x="477" 
d="M59 161v168q0 83 52 130t138 47q89 0 132 -44t43 -104q0 -72 -45.5 -109.5t-119.5 -37.5q-44 0 -75 14t-38.5 23.5t-11.5 18.5l5 -37v-52q0 -57 30 -87.5t82 -30.5q78 0 109 53l7 2l60 -21l3 -6q-18 -48 -64.5 -74t-110.5 -26q-93 0 -144.5 44t-51.5 129zM139 300
q43 -18 97 -18q104 0 104 80q0 29 -23.5 50.5t-70.5 21.5q-52 0 -79.5 -29.5t-27.5 -86.5v-18z" />
    <glyph glyph-name="f" unicode="f" horiz-adv-x="324" 
d="M101 -189v611h-65l-5 5v62l5 5h65v105q0 78 53.5 121t127.5 43q54 0 98 -23l1 -7l-38 -55l-7 -2q-24 11 -54 11q-43 0 -72 -21.5t-29 -62.5v-109h157l5 -5l-19 -62l-7 -5h-136v-541l-20 -101l-6 -7l-49 29z" />
    <glyph glyph-name="g" unicode="g" horiz-adv-x="486" 
d="M102 61q0 55 45 83q-4 1 -11.5 4t-26 15.5t-32.5 30t-25.5 50.5t-11.5 73q0 87 50 134.5t138 47.5h99l110 23l6 -4l10 -55l-4 -7l-68 -19q24 -14 36.5 -48t12.5 -74q0 -84 -51.5 -134.5t-140.5 -50.5l-64 5q-6 -15 -6 -30q0 -30 16 -47t44 -17h62q71 0 109 -36.5
t38 -95.5q0 -67 -55.5 -103.5t-132.5 -36.5q-163 0 -210 96l2 7l60 27l7 -2l3 -6t12 -13.5t24 -17t40.5 -13.5t59.5 -6q52 0 81 20.5t29 50.5q0 23 -18 40t-49 17h-62q-59 0 -92.5 27.5t-33.5 64.5zM233 201q118 0 118 116q0 117 -118 117q-53 0 -83.5 -30t-30.5 -87
q0 -116 114 -116z" />
    <glyph glyph-name="h" unicode="h" horiz-adv-x="522" 
d="M76 5v706l5 6l70 10l5 -4v-251l-5 -44q4 10 12 20.5t24.5 25t44.5 23.5t63 9q69 0 111.5 -45t42.5 -128v-328l-5 -5h-70l-5 5v312q0 61 -30 89t-78 28q-22 0 -105 -23v-406l-5 -5h-70z" />
    <glyph glyph-name="i" unicode="i" horiz-adv-x="231" 
d="M74 608l-5 5v83l5 5h83l5 -5v-83l-5 -5h-83zM75 5v478l5 6l70 10l5 -4v-490l-5 -5h-70z" />
    <glyph glyph-name="j" unicode="j" horiz-adv-x="231" 
d="M74 608l-5 5v83l5 5h83l5 -5v-83l-5 -5h-83zM75 -39v522l5 6l70 10l5 -4v-540q0 -87 -43.5 -136.5t-118.5 -49.5q-63 0 -116 39l-2 6l32 58l5 1q31 -32 77 -32q33 0 59.5 30t26.5 90z" />
    <glyph glyph-name="k" unicode="k" horiz-adv-x="475" 
d="M76 5v706l5 6l70 10l5 -4v-409h8l143 171l7 4l105 10l5 -5l-161 -176l-23 -20l21 -24l104 -158q33 -48 73 -48q9 0 14 1l5 -5l-11 -64l-5 -5q-6 -1 -17 -1q-35 0 -64.5 17t-40.5 30.5t-26 36.5l-129 201h-8v-274l-4 -5h-72z" />
    <glyph glyph-name="l" unicode="l" horiz-adv-x="247" 
d="M74 110v601l5 6l70 10l5 -4v-608q0 -26 14 -35.5t31 -9.5h4l4 -5l-11 -63l-5 -5h-8q-15 0 -29.5 3.5t-34.5 13.5t-32.5 34.5t-12.5 61.5z" />
    <glyph glyph-name="m" unicode="m" horiz-adv-x="790" 
d="M79 5v385l-25 94l5 6l61 9l6 -4l28 -70q3 8 9.5 18.5t21.5 26t43.5 26t65.5 10.5q89 0 124 -74q8 15 21 29t47 29.5t78 15.5q68 0 110.5 -45t42.5 -128v-328l-5 -5h-71l-4 5v312q0 60 -29.5 88t-76.5 28q-32 0 -104 -22q11 -37 11 -70v-336l-5 -5h-70l-5 5v312
q0 117 -97 117q-15 0 -102 -23v-406l-5 -5h-70z" />
    <glyph glyph-name="n" unicode="n" horiz-adv-x="525" 
d="M79 5v385l-25 94l5 6l61 9l6 -4l28 -70q3 8 9.5 18.5t21.5 26t43.5 26t65.5 10.5q69 0 114 -45.5t45 -127.5v-328l-5 -5h-70l-5 5v312q0 60 -32 88.5t-80 28.5q-15 0 -102 -23v-406l-5 -5h-70z" />
    <glyph glyph-name="o" unicode="o" horiz-adv-x="502" 
d="M59 161v172q0 82 53.5 127.5t138.5 45.5t138.5 -45.5t53.5 -127.5v-172q0 -82 -53.5 -127.5t-138.5 -45.5t-138.5 45.5t-53.5 127.5zM139 178q0 -58 29 -88t83 -30q53 0 82.5 30.5t29.5 87.5v139q0 57 -29.5 87t-82.5 30q-54 0 -83 -30t-29 -87v-139z" />
    <glyph glyph-name="p" unicode="p" horiz-adv-x="508" 
d="M155 23l4 -46v-187l-5 -6l-70 -10l-5 4v612l-25 94l5 6l61 9l6 -4l28 -70q3 8 9.5 18.5t21.5 26t43.5 26t65.5 10.5q69 0 111.5 -45t42.5 -128v-172q0 -82 -51 -127.5t-132 -45.5q-64 0 -110 35zM159 166q0 -106 103 -106q47 0 76.5 31t29.5 87v139q0 60 -30 88.5
t-77 28.5q-15 0 -102 -23v-245z" />
    <glyph glyph-name="q" unicode="q" horiz-adv-x="505" 
d="M60 163v170q0 82 51 127.5t131 45.5q26 0 55 -8t45 -16l15 -7l66 18l5 -5v-698l-5 -6l-70 -10l-5 4v244l5 44q-35 -78 -139 -78q-69 0 -111.5 45.5t-42.5 129.5zM140 177q0 -61 30 -89t78 -28q17 0 100 23v245q0 106 -103 106q-48 0 -76.5 -31t-28.5 -87v-139z" />
    <glyph glyph-name="r" unicode="r" horiz-adv-x="309" 
d="M79 5v385l-25 94l5 6l61 9l6 -4l28 -70q3 8 9.5 18.5t21 26t42.5 26t64 10.5l5 -6l-15 -84l-7 -5q-18 9 -52 9q-32 0 -63 -9v-406l-5 -5h-70z" />
    <glyph glyph-name="s" unicode="s" horiz-adv-x="423" 
d="M48 34l-1 6l38 53l8 1q15 -13 47.5 -23.5t56.5 -10.5q100 0 100 78q0 28 -25.5 45t-62 27.5t-72.5 24.5t-61.5 45t-25.5 79q0 72 53 109.5t127 37.5q73 0 129 -39l2 -7l-39 -53h-7q-40 27 -83 27q-45 0 -72.5 -20t-27.5 -55q0 -30 25.5 -48t61.5 -28t72.5 -22.5t62 -43
t25.5 -79.5q0 -150 -179 -150q-92 0 -152 46z" />
    <glyph glyph-name="t" unicode="t" horiz-adv-x="379" 
d="M89 175v247h-54l-5 5v62l5 5h58l9 101l5 6l57 8l5 -4v-111h166l5 -5l-19 -62l-7 -5h-145v-241q0 -52 24 -85.5t64 -33.5q17 0 35.5 8t28.5 16l10 7l7 -1l31 -57l-2 -7q-57 -40 -117 -40q-71 0 -116 48.5t-45 138.5z" />
    <glyph glyph-name="u" unicode="u" horiz-adv-x="518" 
d="M71 164v319l5 6l70 10l5 -4v-314q0 -62 29.5 -91.5t76.5 -29.5q12 0 37.5 7t45.5 14l19 7v395l5 6l70 10l5 -4v-397l25 -88l-5 -6l-61 -9l-6 4l-29 72q-11 -34 -44.5 -58.5t-94.5 -24.5q-69 0 -111 46t-42 130z" />
    <glyph glyph-name="v" unicode="v" horiz-adv-x="462" 
d="M192 13l-178 470l5 6l77 10l5 -4l118 -359l14 -53l14 53l114 348l6 5l80 10l3 -5l-183 -497l-7 -4l-61 14z" />
    <glyph glyph-name="w" unicode="w" horiz-adv-x="730" 
d="M191 12l-177 471l5 6l75 10l5 -4l121 -359l14 -53l14 53l81 244v103l5 6l69 10l5 -4v-128l75 -231l14 -53l14 53l116 348l6 5l81 10l3 -5l-182 -495l-7 -6l-68 14l-6 6l-77 234l-12 49l-13 -49l-81 -248l-7 -6l-67 13z" />
    <glyph glyph-name="x" unicode="x" horiz-adv-x="487" 
d="M27 5l169 245l-161 233l5 6l73 10l7 -4l107 -166l15 -27l14 27l100 155l8 5l84 10l6 -4l-165 -241l172 -249l-4 -5h-82l-8 5l-111 171l-14 25l-13 -25l-110 -171l-8 -5h-80z" />
    <glyph glyph-name="y" unicode="y" horiz-adv-x="465" 
d="M4 -128q32 -31 78 -31q60 0 93 91l31 84l-11 4l-8 7l-172 456l5 6l78 10l5 -4l117 -360l15 -53l12 44l114 358l6 5l80 10l3 -5l-209 -595q-45 -130 -157 -130q-62 0 -115 39l-2 8l30 54z" />
    <glyph glyph-name="z" unicode="z" horiz-adv-x="431" 
d="M51 5l-10 45l241 372h-229l-5 5l11 62l7 5h313l5 -5v-47l-244 -370h238l5 -5v-62l-5 -5h-320z" />
    <glyph glyph-name="braceleft" unicode="{" horiz-adv-x="384" 
d="M135 47v120q0 46 -20 73.5t-73 34.5l-4 5l18 60l7 5q42 11 57 36t15 67v67q0 75 50 119.5t137 44.5h23l4 -5l-18 -58l-6 -5q-53 0 -84 -28.5t-31 -85.5v-47q0 -51 -22 -89t-64 -55q86 -38 86 -135v-106q0 -58 31 -87t84 -29l6 -5l18 -58l-4 -5h-23q-87 0 -137 45.5
t-50 120.5z" />
    <glyph glyph-name="bar" unicode="|" horiz-adv-x="256" 
d="M87 -215v925l5 6l70 10l5 -4v-937l-5 -5h-70z" />
    <glyph glyph-name="braceright" unicode="}" horiz-adv-x="383" 
d="M53 -56l6 5q53 0 84 29t31 87v106q0 97 86 135q-42 17 -64 55t-22 89v47q0 57 -31 85.5t-84 28.5l-6 5l-18 58l4 5h23q87 0 137 -44.5t50 -119.5v-67q0 -51 18.5 -73t72.5 -35l4 -7l-18 -57l-7 -5q-70 -20 -70 -104v-120q0 -75 -50 -120.5t-137 -45.5h-23l-4 5z" />
    <glyph glyph-name="asciitilde" unicode="~" horiz-adv-x="588" 
d="M66 265l-5 5q0 82 38.5 123t98.5 41q35 0 65 -15t46.5 -33.5t38 -33.5t42.5 -15q67 0 67 88l5 5h67l5 -5q0 -82 -38.5 -123t-98.5 -41q-35 0 -65 15t-46.5 33.5t-38 33.5t-42.5 15q-67 0 -67 -88l-5 -5h-67z" />
    <glyph glyph-name="uni00A0" unicode="&#xa0;" horiz-adv-x="249" 
 />
    <glyph glyph-name="exclamdown" unicode="&#xa1;" horiz-adv-x="255" 
d="M83 393l-5 5v91l5 5h89l5 -5v-91l-5 -5h-89zM77 -227l19 530l5 5h53l5 -5l21 -516l-5 -6l-92 -12z" />
    <glyph glyph-name="cent" unicode="&#xa2;" horiz-adv-x="520" 
d="M239 5v75q-79 9 -131 59t-52 133v31q0 83 52 132t131 59v76l5 6l48 7l5 -4v-84q124 -11 171 -98l-3 -6l-61 -25l-7 2q-29 45 -100 54v-271q71 9 100 55l7 2l60 -25l3 -6q-47 -89 -170 -98v-74l-5 -5h-48zM239 153v267q-46 -9 -74.5 -41t-28.5 -78v-27q0 -47 28.5 -79.5
t74.5 -41.5z" />
    <glyph glyph-name="sterling" unicode="&#xa3;" horiz-adv-x="583" 
d="M55 48l3 6q6 0 16 1t27.5 12t20.5 31l23 170h-83l-5 5v62l5 5h90l10 79q10 77 57 121.5t117 44.5q37 0 69 -9t45 -18l14 -9l1 -7l-22 -55l-7 -2q-42 28 -101 28q-35 0 -60.5 -27t-33.5 -85l-8 -61h162l4 -5l-18 -62l-6 -5h-150l-19 -149l-12 -50h24q34 0 87.5 -20.5
t79.5 -20.5q33 0 55.5 21t22.5 65q0 12 -2.5 25t-4.5 19l-3 7l4 6l60 12l7 -3q13 -41 13 -69q0 -76 -40.5 -115.5t-102.5 -39.5q-32 0 -93 22t-92 22q-20 0 -50.5 -4t-51.5 -8l-21 -5l-6 3z" />
    <glyph glyph-name="yen" unicode="&#xa5;" horiz-adv-x="556" 
d="M80 149l-5 5v60l5 5h156v29l-38 67h-118l-5 5v60l5 5h79l-100 180l5 7l82 11l6 -4l108 -216l16 -39l17 39l102 202l5 6l89 12l6 -4l-105 -194h104l4 -5l-17 -60l-6 -5h-123l-36 -67v-29h156l4 -5l-17 -60l-6 -5h-137v-144l-5 -5h-70l-5 5v144h-156z" />
    <glyph glyph-name="brokenbar" unicode="&#xa6;" horiz-adv-x="274" 
d="M102 340l-5 5v365l4 6l70 11l6 -4v-378l-5 -5h-70zM97 161l5 5h70l5 -5v-376l-5 -5h-70l-5 5v376z" />
    <glyph glyph-name="section" unicode="&#xa7;" horiz-adv-x="424" 
d="M140 3l-67 480q-4 28 -4 44q0 73 42.5 115.5t121.5 42.5q94 0 156 -65v-7l-47 -47l-7 2q-39 43 -102 43q-36 0 -62 -20.5t-26 -57.5q0 -8 2 -20l79 -570l-4 -10l-44 -34l-6 6zM284 461l67 -480q4 -28 4 -44q0 -73 -42.5 -115.5t-121.5 -42.5q-94 0 -156 65v7l47 47l7 -2
q39 -43 102 -43q36 0 62 20.5t26 57.5q0 8 -2 20l-79 570l4 10l44 34l6 -6z" />
    <glyph glyph-name="dieresis" unicode="&#xa8;" horiz-adv-x="502" 
d="M283 610l-5 5v78l5 5h73l5 -5v-78l-5 -5h-73zM146 610l-5 5v78l5 5h73l5 -5v-78l-5 -5h-73z" />
    <glyph glyph-name="copyright" unicode="&#xa9;" horiz-adv-x="788" 
d="M61 276v119q0 95 50.5 163t124.5 98.5t158 30.5q86 0 159.5 -30.5t123.5 -98.5t50 -163v-119q0 -72 -28.5 -129.5t-76.5 -92.5t-106.5 -53t-121.5 -18q-84 0 -158 30.5t-124.5 99t-50.5 163.5zM126 296q0 -84 38 -142t97 -83t133 -25q117 0 192.5 62.5t75.5 187.5v78
q0 125 -75.5 187.5t-192.5 62.5q-116 0 -192 -62.5t-76 -187.5v-78zM238 276v115q0 73 42 112.5t116 39.5q53 0 92.5 -24.5t54.5 -66.5l-3 -6l-51 -20l-7 2q-34 49 -86 49q-40 0 -65 -23.5t-25 -66.5v-107q0 -43 25 -66t65 -23q67 0 92 54l7 2l50 -18l3 -6q-30 -98 -152 -98
q-75 0 -116.5 39t-41.5 112z" />
    <glyph glyph-name="ordfeminine" unicode="&#xaa;" horiz-adv-x="337" 
d="M139 365q-38 0 -65 24.5t-27 66.5q0 46 24.5 69t67.5 23h53l17 4v25q0 46 -53 46q-32 0 -60 -19l-8 1l-25 38l2 8q41 31 91 31q52 0 83.5 -24t31.5 -73v-147l12 -59l-5 -6l-45 -6l-6 4l-13 42q-1 -2 -2 -5t-7 -11.5t-13.5 -15t-21.5 -11.5t-31 -5zM148 420q10 0 25 3
t25 7l11 3v89q-16 -28 -47 -28h-22q-15 0 -23 -11t-8 -27t11 -26t28 -10z" />
    <glyph glyph-name="guillemotleft" unicode="&#xab;" horiz-adv-x="500" 
d="M233 244v7l126 190l9 6h75l6 -7l-130 -192l130 -192l-6 -7h-75l-9 6zM170 55l-126 189v7l126 190l9 6h75l6 -7l-130 -192l130 -192l-6 -7h-75z" />
    <glyph glyph-name="logicalnot" unicode="&#xac;" horiz-adv-x="523" 
d="M38 233l-3 7v30l3 7l398 227l6 -2l32 -56l-2 -7l-14 -13l-65 -171l65 -171l14 -13l2 -7l-32 -56l-6 -2z" />
    <glyph glyph-name="uni00AD" unicode="&#xad;" horiz-adv-x="425" 
d="M88 219l-5 5v70l5 5h257l4 -5l-18 -70l-6 -5h-237z" />
    <glyph glyph-name="registered" unicode="&#xae;" horiz-adv-x="472" 
d="M236 291q-75 0 -131.5 43t-56.5 122v65q0 78 56.5 121t131.5 43q76 0 132 -43t56 -121v-65q0 -79 -56 -122t-132 -43zM236 332q62 0 102 34t40 101v42q0 68 -40 101.5t-102 33.5q-61 0 -101.5 -33.5t-40.5 -101.5v-42q0 -67 40.5 -101t101.5 -34zM172 372l-5 5v221l5 5
h62q84 0 84 -71q0 -25 -15.5 -42t-38.5 -22l34 -45q7 -8 22 -8h3l5 -5l-5 -33l-5 -5h-12q-29 0 -47 29l-42 64h-2v-88l-5 -5h-38zM215 502h19q15 0 25.5 7.5t10.5 22.5q0 28 -36 28h-19v-58z" />
    <glyph glyph-name="macron" unicode="&#xaf;" horiz-adv-x="503" 
d="M144 608l-5 5v58l5 5h224l4 -5l-12 -58l-6 -5h-210z" />
    <glyph glyph-name="degree" unicode="&#xb0;" horiz-adv-x="354" 
d="M177 431q-54 0 -93.5 30t-39.5 85v25q0 54 39 84t94 30t94 -30t39 -84v-25q0 -55 -39.5 -85t-93.5 -30zM177 492q69 0 69 66t-69 66t-69 -66t69 -66z" />
    <glyph glyph-name="plusminus" unicode="&#xb1;" 
d="M228 61v161h-129l-5 5v63l5 5h129v143l5 6l70 10l5 -4v-155h145l4 -5l-16 -63l-6 -5h-127v-161l-5 -5h-70zM94 -27l5 5h358l4 -5l-18 -69l-6 -5h-338l-5 5v69z" />
    <glyph glyph-name="twosuperior" unicode="&#xb2;" horiz-adv-x="365" 
d="M62 365l-6 5l-7 31q1 27 30 61t63.5 62.5t62.5 64.5t28 65q0 25 -16.5 43.5t-42.5 18.5q-43 0 -78 -50h-5l-43 31v5q2 3 5.5 8t15.5 18.5t25.5 23.5t35.5 18t46 8q51 0 88.5 -32.5t37.5 -88.5q0 -36 -24.5 -74.5t-54 -65t-57.5 -52.5t-33 -38h179l4 -5l-14 -52l-6 -5
h-234z" />
    <glyph glyph-name="threesuperior" unicode="&#xb3;" horiz-adv-x="361" 
d="M175 361q-42 0 -76.5 19.5t-47.5 38.5l-13 19l1 6l45 34h8q3 -6 9.5 -15t28 -24.5t45.5 -15.5q29 0 50.5 16t21.5 43v10q0 27 -23 42t-65 15h-37l-4 5l18 51l6 5h17q79 0 79 53q0 28 -18.5 41.5t-48.5 13.5q-15 0 -29 -6t-21.5 -12.5t-16 -15.5t-10.5 -10l-8 -1l-43 29v7
q2 3 5.5 7.5t15.5 17t25.5 22t35.5 17t46 7.5q59 0 95.5 -31t36.5 -85q0 -58 -47 -83q56 -22 56 -81v-23q0 -54 -40 -85t-97 -31z" />
    <glyph glyph-name="acute" unicode="&#xb4;" horiz-adv-x="502" 
d="M232 569l-50 20l-1 6l60 102l7 4h108l5 -4l-123 -128h-6z" />
    <glyph glyph-name="mu" unicode="&#xb5;" horiz-adv-x="787" 
d="M38 233l-3 7v30l3 7l398 227l6 -2l32 -56l-2 -7l-14 -13l-65 -129h354l5 -5v-74l-5 -5h-354l65 -129l14 -13l2 -7l-32 -56l-6 -2z" />
    <glyph glyph-name="mu" unicode="&#x3bc;" horiz-adv-x="787" 
d="M38 233l-3 7v30l3 7l398 227l6 -2l32 -56l-2 -7l-14 -13l-65 -129h354l5 -5v-74l-5 -5h-354l65 -129l14 -13l2 -7l-32 -56l-6 -2z" />
    <glyph glyph-name="paragraph" unicode="&#xb6;" horiz-adv-x="581" 
d="M270 164q-91 0 -152.5 48t-61.5 146v125q0 97 61.5 144.5t152.5 47.5h272l4 -5l-10 -67l-6 -5h-183v-813l-4 -4h-68l-5 4v379zM399 -214v754l5 5h67l5 -5v-754l-5 -5h-67z" />
    <glyph glyph-name="periodcentered" unicode="&#xb7;" horiz-adv-x="262" 
d="M85 211l-5 5v94l5 5h92l5 -5v-94l-5 -5h-92z" />
    <glyph glyph-name="cedilla" unicode="&#xb8;" horiz-adv-x="502" 
d="M168 -103l7 3q22 -16 44 -16q68 0 68 67q0 8 -4.5 20t-8.5 21l-4 8h30q5 -4 13 -11.5t21 -29.5t13 -42q0 -43 -29 -68t-73 -25q-57 0 -88 32l-2 7z" />
    <glyph glyph-name="onesuperior" unicode="&#xb9;" horiz-adv-x="362" 
d="M57 365l-5 5v52l5 5h93v284h-68l-6 5l-13 52l4 5h144l5 -5v-341h96l4 -5l-13 -52l-6 -5h-240z" />
    <glyph glyph-name="ordmasculine" unicode="&#xba;" horiz-adv-x="346" 
d="M173 365q-53 0 -86.5 28t-33.5 79v102q0 51 33.5 79.5t86.5 28.5t86.5 -28.5t33.5 -79.5v-102q0 -51 -33.5 -79t-86.5 -28zM173 423q58 0 58 60v82q0 58 -58 58t-58 -58v-82q0 -60 58 -60z" />
    <glyph glyph-name="guillemotright" unicode="&#xbb;" horiz-adv-x="500" 
d="M240 56l130 192l-130 192l6 7h75l9 -6l126 -190v-7l-126 -189l-9 -6h-75zM57 49l-6 7l130 192l-130 192l6 7h75l9 -6l126 -190v-7l-126 -189l-9 -6h-75z" />
    <glyph glyph-name="onequarter" unicode="&#xbc;" horiz-adv-x="779" 
d="M48 267l-5 5v52l5 5h93v284h-68l-6 5l-13 52l4 5h144l5 -5v-341h96l4 -5l-13 -52l-6 -5h-240zM261 5l156 489l7 4l53 -9l4 -6l-152 -478l-6 -5h-59zM437 107l-10 40l181 250l7 5l46 9l5 -4v-243h72l4 -5l-14 -51l-5 -5h-57v-95l-5 -6l-56 -8l-5 4v105h-156zM512 164h89
v90l2 38l-22 -35l-53 -75z" />
    <glyph glyph-name="onehalf" unicode="&#xbd;" horiz-adv-x="797" 
d="M48 267l-5 5v52l5 5h93v284h-68l-6 5l-13 52l4 5h144l5 -5v-341h96l4 -5l-13 -52l-6 -5h-240zM261 5l156 489l7 4l53 -9l4 -6l-152 -478l-6 -5h-59zM482 36q1 27 30 61t63.5 62.5t62.5 64.5t28 65q0 25 -16.5 43.5t-42.5 18.5q-43 0 -78 -50h-5l-43 31v5q2 3 5.5 8
t15.5 18.5t25.5 23.5t35.5 18t46 8q51 0 88.5 -32.5t37.5 -88.5q0 -36 -24.5 -74.5t-54 -65t-57.5 -52.5t-33 -38h179l4 -5l-14 -52l-6 -5h-234l-6 5z" />
    <glyph glyph-name="threequarters" unicode="&#xbe;" horiz-adv-x="774" 
d="M176 263q-42 0 -76.5 19.5t-47.5 38.5l-13 19l1 6l45 34h8q3 -6 9.5 -15t28 -24.5t45.5 -15.5q29 0 50.5 16t21.5 43v10q0 27 -23 42t-65 15h-37l-4 5l18 51l6 5h17q79 0 79 53q0 28 -18.5 41.5t-48.5 13.5q-15 0 -29 -6t-21.5 -12.5t-16 -15.5t-10.5 -10l-8 -1l-43 29v7
q2 3 5.5 7.5t15.5 17t25.5 22t35.5 17t46 7.5q59 0 95.5 -31t36.5 -85q0 -58 -47 -83q56 -22 56 -81v-23q0 -54 -40 -85t-97 -31zM258 5l156 489l7 4l53 -9l4 -6l-152 -478l-6 -5h-59zM432 107l-10 40l181 250l7 5l46 9l5 -4v-243h72l4 -5l-14 -51l-5 -5h-57v-95l-5 -6
l-56 -8l-5 4v105h-156zM507 164h89v90l2 38l-22 -35l-53 -75z" />
    <glyph glyph-name="questiondown" unicode="&#xbf;" horiz-adv-x="478" 
d="M210 393l-5 5v91l5 5h89l5 -5v-91l-5 -5h-89zM48 46q0 74 47 121t122 55l3 81l5 5h59l5 -5v-143l-5 -6l-68 -11q-40 -7 -62 -37.5t-22 -76.5v-71q0 -53 29.5 -81t83.5 -28q55 0 86.5 27t31.5 82l6 4l69 -15l5 -6q0 -81 -56 -126.5t-142 -45.5t-141.5 45.5t-55.5 126.5
v105z" />
    <glyph glyph-name="Agrave" unicode="&#xc0;" horiz-adv-x="590" 
d="M298 733l-123 128l5 4h108l7 -4l60 -102l-1 -6l-50 -20h-6zM12 5l233 660l6 5l84 11l6 -4l237 -672l-3 -5h-80l-6 5l-55 161h-279l-54 -161l-5 -5h-81zM181 242h228l-104 308l-10 43l-10 -43z" />
    <glyph glyph-name="Aacute" unicode="&#xc1;" horiz-adv-x="590" 
d="M285 733l-50 20l-1 6l60 102l7 4h108l5 -4l-123 -128h-6zM12 5l233 660l6 5l84 11l6 -4l237 -672l-3 -5h-80l-6 5l-55 161h-279l-54 -161l-5 -5h-81zM181 242h228l-104 308l-10 43l-10 -43z" />
    <glyph glyph-name="Acircumflex" unicode="&#xc2;" horiz-adv-x="590" 
d="M220 733l-55 18l-2 7l92 102l9 5h60l9 -5l92 -102l-2 -7l-55 -18h-7l-67 78l-67 -78h-7zM12 5l233 660l6 5l84 11l6 -4l237 -672l-3 -5h-80l-6 5l-55 161h-279l-54 -161l-5 -5h-81zM181 242h228l-104 308l-10 43l-10 -43z" />
    <glyph glyph-name="Atilde" unicode="&#xc3;" horiz-adv-x="590" 
d="M189 756l-36 27v7q21 35 42 50.5t53 15.5q30 0 57 -23t41 -23q15 0 48 33l7 2l36 -27v-7q-37 -66 -97 -66q-28 0 -56 22.5t-41 22.5q-18 0 -47 -32zM12 5l233 660l6 5l84 11l6 -4l237 -672l-3 -5h-80l-6 5l-55 161h-279l-54 -161l-5 -5h-81zM181 242h228l-104 308l-10 43
l-10 -43z" />
    <glyph glyph-name="Adieresis" unicode="&#xc4;" horiz-adv-x="590" 
d="M327 774l-5 5v78l5 5h73l5 -5v-78l-5 -5h-73zM190 774l-5 5v78l5 5h73l5 -5v-78l-5 -5h-73zM12 5l233 660l6 5l84 11l6 -4l237 -672l-3 -5h-80l-6 5l-55 161h-279l-54 -161l-5 -5h-81zM181 242h228l-104 308l-10 43l-10 -43z" />
    <glyph glyph-name="Aring" unicode="&#xc5;" horiz-adv-x="590" 
d="M291 733q-33 0 -57 17.5t-24 48.5v13q0 31 24 48t57 17t57 -17t24 -48v-13q0 -31 -24 -48.5t-57 -17.5zM291 772q37 0 37 33t-37 33t-37 -33t37 -33zM12 5l233 660l6 5l84 11l6 -4l237 -672l-3 -5h-80l-6 5l-55 161h-279l-54 -161l-5 -5h-81zM181 242h228l-104 308
l-10 43l-10 -43z" />
    <glyph glyph-name="AE" unicode="&#xc6;" horiz-adv-x="766" 
d="M9 5l258 665l6 5h404l5 -5v-70l-5 -5h-278l41 -200h233l5 -5l-14 -70l-6 -5h-201l48 -235h205l4 -5l-10 -70l-6 -5h-257l-6 5l-33 159h-241l-58 -159l-5 -5h-86zM191 244h195l-62 306l-8 45l-12 -45z" />
    <glyph glyph-name="Ccedilla" unicode="&#xc7;" horiz-adv-x="627" 
d="M215 -103l7 3q22 -16 44 -16q68 0 68 67q0 13 -11 37q-117 3 -184.5 66t-67.5 179v204q0 119 71 183.5t191 64.5q83 0 145 -36t89 -102l-3 -6l-67 -28l-7 2q-20 42 -62 66t-95 24q-79 0 -127.5 -45.5t-48.5 -129.5v-188q0 -86 48 -130t128 -44q126 0 169 93l7 2l65 -25
l3 -6q-46 -132 -218 -143q35 -35 35 -72q0 -43 -29 -68t-73 -25q-57 0 -88 32l-2 7z" />
    <glyph glyph-name="Egrave" unicode="&#xc8;" horiz-adv-x="513" 
d="M284 733l-123 128l5 4h108l7 -4l60 -102l-1 -6l-50 -20h-6zM93 5v665l5 5h347l5 -5v-70l-5 -5h-268v-200h233l4 -5l-18 -70l-6 -5h-213v-235h269l4 -5l-10 -70l-6 -5h-336z" />
    <glyph glyph-name="Eacute" unicode="&#xc9;" horiz-adv-x="513" 
d="M274 733l-50 20l-1 6l60 102l7 4h108l5 -4l-123 -128h-6zM93 5v665l5 5h347l5 -5v-70l-5 -5h-268v-200h233l4 -5l-18 -70l-6 -5h-213v-235h269l4 -5l-10 -70l-6 -5h-336z" />
    <glyph glyph-name="Ecircumflex" unicode="&#xca;" horiz-adv-x="513" 
d="M205 733l-55 18l-2 7l92 102l9 5h60l9 -5l92 -102l-2 -7l-55 -18h-7l-67 78l-67 -78h-7zM93 5v665l5 5h347l5 -5v-70l-5 -5h-268v-200h233l4 -5l-18 -70l-6 -5h-213v-235h269l4 -5l-10 -70l-6 -5h-336z" />
    <glyph glyph-name="Edieresis" unicode="&#xcb;" horiz-adv-x="513" 
d="M312 774l-5 5v78l5 5h73l5 -5v-78l-5 -5h-73zM175 774l-5 5v78l5 5h73l5 -5v-78l-5 -5h-73zM93 5v665l5 5h347l5 -5v-70l-5 -5h-268v-200h233l4 -5l-18 -70l-6 -5h-213v-235h269l4 -5l-10 -70l-6 -5h-336z" />
    <glyph glyph-name="Igrave" unicode="&#xcc;" horiz-adv-x="271" 
d="M138 733l-123 128l5 4h108l7 -4l60 -102l-1 -6l-50 -20h-6zM93 5v660l5 6l74 10l5 -4v-672l-5 -5h-74z" />
    <glyph glyph-name="Iacute" unicode="&#xcd;" horiz-adv-x="271" 
d="M128 733l-50 20l-1 6l60 102l7 4h108l5 -4l-123 -128h-6zM93 5v660l5 6l74 10l5 -4v-672l-5 -5h-74z" />
    <glyph glyph-name="Icircumflex" unicode="&#xce;" horiz-adv-x="271" 
d="M61 733l-55 18l-2 7l92 102l9 5h60l9 -5l92 -102l-2 -7l-55 -18h-7l-67 78l-67 -78h-7zM93 5v660l5 6l74 10l5 -4v-672l-5 -5h-74z" />
    <glyph glyph-name="Idieresis" unicode="&#xcf;" horiz-adv-x="271" 
d="M166 774l-5 5v78l5 5h73l5 -5v-78l-5 -5h-73zM29 774l-5 5v78l5 5h73l5 -5v-78l-5 -5h-73zM93 5v660l5 6l74 10l5 -4v-672l-5 -5h-74z" />
    <glyph glyph-name="Eth" unicode="&#xd0;" horiz-adv-x="670" 
d="M107 5v291h-46l-5 5v70l5 5h46v294l5 5h221q122 0 194 -64t72 -181v-187q0 -118 -71.5 -180.5t-194.5 -62.5h-221zM191 80h142q81 0 130.5 43t49.5 129v169q0 85 -50 129.5t-130 44.5h-142v-219h127l4 -5l-18 -70l-6 -5h-107v-216z" />
    <glyph glyph-name="Ntilde" unicode="&#xd1;" horiz-adv-x="707" 
d="M255 756l-36 27v7q21 35 42 50.5t53 15.5q30 0 57 -23t41 -23q15 0 48 33l7 2l36 -27v-7q-37 -66 -97 -66q-28 0 -56 22.5t-41 22.5q-18 0 -47 -32zM93 5v660l5 6l74 10l7 -4l324 -488l26 -48v524l5 6l74 10l5 -4v-672l-5 -5h-71l-8 5l-326 492l-26 48v-540l-5 -5h-74z
" />
    <glyph glyph-name="Ograve" unicode="&#xd2;" horiz-adv-x="668" 
d="M335 733l-123 128l5 4h108l7 -4l60 -102l-1 -6l-50 -20h-6zM71 233v204q0 119 71.5 183.5t191.5 64.5t191.5 -64.5t71.5 -183.5v-204q0 -118 -71 -181.5t-192 -63.5t-192 63.5t-71 181.5zM157 242q0 -86 48.5 -130t128.5 -44t128.5 44t48.5 130v188q0 84 -49 129.5
t-128 45.5t-128 -45.5t-49 -129.5v-188z" />
    <glyph glyph-name="Oacute" unicode="&#xd3;" horiz-adv-x="668" 
d="M280 753l-1 6l60 102l7 4h108l5 -4l-123 -128h-6zM71 233v204q0 119 71.5 183.5t191.5 64.5t191.5 -64.5t71.5 -183.5v-204q0 -118 -71 -181.5t-192 -63.5t-192 63.5t-71 181.5zM157 242q0 -86 48.5 -130t128.5 -44t128.5 44t48.5 130v188q0 84 -49 129.5t-128 45.5
t-128 -45.5t-49 -129.5v-188z" />
    <glyph glyph-name="Ocircumflex" unicode="&#xd4;" horiz-adv-x="668" 
d="M261 733l-55 18l-2 7l92 102l9 5h60l9 -5l92 -102l-2 -7l-55 -18h-7l-67 78l-67 -78h-7zM71 233v204q0 119 71.5 183.5t191.5 64.5t191.5 -64.5t71.5 -183.5v-204q0 -118 -71 -181.5t-192 -63.5t-192 63.5t-71 181.5zM157 242q0 -86 48.5 -130t128.5 -44t128.5 44
t48.5 130v188q0 84 -49 129.5t-128 45.5t-128 -45.5t-49 -129.5v-188z" />
    <glyph glyph-name="Otilde" unicode="&#xd5;" horiz-adv-x="668" 
d="M230 756l-36 27v7q21 35 42 50.5t53 15.5q30 0 57 -23t41 -23q15 0 48 33l7 2l36 -27v-7q-38 -66 -97 -66q-29 0 -56 22.5t-41 22.5q-18 0 -47 -32zM71 233v204q0 119 71.5 183.5t191.5 64.5t191.5 -64.5t71.5 -183.5v-204q0 -118 -71 -181.5t-192 -63.5t-192 63.5
t-71 181.5zM157 242q0 -86 48.5 -130t128.5 -44t128.5 44t48.5 130v188q0 84 -49 129.5t-128 45.5t-128 -45.5t-49 -129.5v-188z" />
    <glyph glyph-name="Odieresis" unicode="&#xd6;" horiz-adv-x="668" 
d="M368 774l-5 5v78l5 5h73l5 -5v-78l-5 -5h-73zM231 774l-5 5v78l5 5h73l5 -5v-78l-5 -5h-73zM71 233v204q0 119 71.5 183.5t191.5 64.5t191.5 -64.5t71.5 -183.5v-204q0 -118 -71 -181.5t-192 -63.5t-192 63.5t-71 181.5zM157 242q0 -86 48.5 -130t128.5 -44t128.5 44
t48.5 130v188q0 84 -49 129.5t-128 45.5t-128 -45.5t-49 -129.5v-188z" />
    <glyph glyph-name="multiply" unicode="&#xd7;" 
d="M95 123v7l129 129l-131 131l1 7l57 42l7 -1l122 -122l127 128h7l43 -58l-3 -7l-118 -119l127 -127v-7l-49 -49h-7l-127 126l-129 -129h-7z" />
    <glyph glyph-name="Oslash" unicode="&#xd8;" horiz-adv-x="668" 
d="M108 -10l35 60q-72 64 -72 183v204q0 119 71.5 183.5t191.5 64.5q90 0 153 -36l26 45l7 2l49 -18l2 -5l-36 -62q62 -67 62 -174v-204q0 -118 -71 -181.5t-192 -63.5q-81 0 -141 29l-32 -55l-6 -2l-45 25zM189 130l255 444q-44 31 -110 31q-79 0 -128 -45.5t-49 -129.5
v-188q0 -69 32 -112zM235 90q41 -22 99 -22q80 0 128.5 44t48.5 130v188q0 56 -24 98z" />
    <glyph glyph-name="Ugrave" unicode="&#xd9;" horiz-adv-x="695" 
d="M351 733l-123 128l5 4h108l7 -4l60 -102l-1 -6l-50 -20h-6zM86 233v432l5 6l74 10l5 -4v-435q0 -86 49 -130t128 -44q82 0 129.5 44t47.5 130v423l5 6l74 10l5 -4v-444q0 -119 -69 -182t-192 -63q-122 0 -191.5 63t-69.5 182z" />
    <glyph glyph-name="Uacute" unicode="&#xda;" horiz-adv-x="695" 
d="M296 753l-1 6l60 102l7 4h108l5 -4l-123 -128h-6zM86 233v432l5 6l74 10l5 -4v-435q0 -86 49 -130t128 -44q82 0 129.5 44t47.5 130v423l5 6l74 10l5 -4v-444q0 -119 -69 -182t-192 -63q-122 0 -191.5 63t-69.5 182z" />
    <glyph glyph-name="Ucircumflex" unicode="&#xdb;" horiz-adv-x="695" 
d="M217 751l-2 7l92 102l9 5h60l9 -5l92 -102l-2 -7l-55 -18h-7l-67 78l-67 -78h-7zM86 233v432l5 6l74 10l5 -4v-435q0 -86 49 -130t128 -44q82 0 129.5 44t47.5 130v423l5 6l74 10l5 -4v-444q0 -119 -69 -182t-192 -63q-122 0 -191.5 63t-69.5 182z" />
    <glyph glyph-name="Udieresis" unicode="&#xdc;" horiz-adv-x="695" 
d="M379 774l-5 5v78l5 5h73l5 -5v-78l-5 -5h-73zM242 774l-5 5v78l5 5h73l5 -5v-78l-5 -5h-73zM86 233v432l5 6l74 10l5 -4v-435q0 -86 49 -130t128 -44q82 0 129.5 44t47.5 130v423l5 6l74 10l5 -4v-444q0 -119 -69 -182t-192 -63q-122 0 -191.5 63t-69.5 182z" />
    <glyph glyph-name="Yacute" unicode="&#xdd;" horiz-adv-x="514" 
d="M247 733l-50 20l-1 6l60 102l7 4h108l5 -4l-123 -128h-6zM215 5v291l-203 367l5 7l84 11l6 -4l134 -266l16 -39l17 39l127 252l5 6l91 12l6 -4l-204 -381v-291l-5 -5h-74z" />
    <glyph glyph-name="Thorn" unicode="&#xde;" horiz-adv-x="556" 
d="M93 5v660l5 6l74 10l5 -4v-141h97q102 0 158 -33q84 -49 84 -168q0 -94 -57 -155.5t-166 -61.5q-97 0 -121 58l5 -40v-131l-5 -5h-74zM177 210q49 -17 95 -17q71 0 114 35t43 105q0 126 -155 126h-97v-249z" />
    <glyph glyph-name="germandbls" unicode="&#xdf;" horiz-adv-x="598" 
d="M97 -189v611h-60l-5 5v62l5 5h60v73q0 78 53 119t128 41t128 -41t53 -119q0 -37 -17.5 -68t-38 -48.5t-38 -45t-17.5 -59.5q0 -26 22.5 -41t54.5 -24.5t64 -22t54.5 -42.5t22.5 -78q0 -150 -179 -150q-91 0 -151 46l-1 6l38 53l8 1q15 -13 47.5 -23.5t56.5 -10.5
q101 0 101 78q0 28 -21.5 45.5t-53 28t-62.5 23t-52.5 40.5t-21.5 71q0 39 16.5 71.5t35.5 50.5t35.5 44.5t16.5 54.5q0 42 -29.5 65t-71.5 23q-43 0 -72 -21.5t-29 -62.5v-690l-20 -101l-6 -7l-49 29z" />
    <glyph glyph-name="agrave" unicode="&#xe0;" horiz-adv-x="474" 
d="M238 569l-123 128l5 4h108l7 -4l60 -102l-1 -6l-50 -20h-6zM40 135q0 70 48 109q47 38 156 38h35q28 0 44 10v47q0 95 -103 95q-62 0 -99 -30l-8 1l-34 50l2 8q55 43 140 43q83 0 132.5 -36.5t49.5 -115.5v-256l25 -88l-5 -6l-61 -9l-6 4l-29 72q-1 -3 -3.5 -9t-12.5 -20
t-23.5 -25t-39 -20t-56.5 -9q-62 0 -107 35.5t-45 111.5zM124 134q0 -33 22 -53.5t59 -20.5q22 0 51.5 7t47.5 15l19 7v169q-15 -50 -88 -50h-24q-34 0 -60.5 -16.5t-26.5 -57.5z" />
    <glyph glyph-name="aacute" unicode="&#xe1;" horiz-adv-x="474" 
d="M233 569l-50 20l-1 6l60 102l7 4h108l5 -4l-123 -128h-6zM40 135q0 70 48 109q47 38 156 38h35q28 0 44 10v47q0 95 -103 95q-62 0 -99 -30l-8 1l-34 50l2 8q55 43 140 43q83 0 132.5 -36.5t49.5 -115.5v-256l25 -88l-5 -6l-61 -9l-6 4l-29 72q-1 -3 -3.5 -9t-12.5 -20
t-23.5 -25t-39 -20t-56.5 -9q-62 0 -107 35.5t-45 111.5zM124 134q0 -33 22 -53.5t59 -20.5q22 0 51.5 7t47.5 15l19 7v169q-15 -50 -88 -50h-24q-34 0 -60.5 -16.5t-26.5 -57.5z" />
    <glyph glyph-name="acircumflex" unicode="&#xe2;" horiz-adv-x="474" 
d="M164 569l-55 18l-2 7l92 102l9 5h60l9 -5l92 -102l-2 -7l-55 -18h-7l-67 78l-67 -78h-7zM40 135q0 70 48 109q47 38 156 38h35q28 0 44 10v47q0 95 -103 95q-62 0 -99 -30l-8 1l-34 50l2 8q55 43 140 43q83 0 132.5 -36.5t49.5 -115.5v-256l25 -88l-5 -6l-61 -9l-6 4
l-29 72q-1 -3 -3.5 -9t-12.5 -20t-23.5 -25t-39 -20t-56.5 -9q-62 0 -107 35.5t-45 111.5zM124 134q0 -33 22 -53.5t59 -20.5q22 0 51.5 7t47.5 15l19 7v169q-15 -50 -88 -50h-24q-34 0 -60.5 -16.5t-26.5 -57.5z" />
    <glyph glyph-name="atilde" unicode="&#xe3;" horiz-adv-x="474" 
d="M133 592l-36 27v7q21 35 42 50.5t53 15.5q30 0 57 -23t41 -23q15 0 48 33l7 2l36 -27v-7q-37 -66 -97 -66q-28 0 -56 22.5t-41 22.5q-18 0 -47 -32zM40 135q0 70 48 109q47 38 156 38h35q28 0 44 10v47q0 95 -103 95q-62 0 -99 -30l-8 1l-34 50l2 8q55 43 140 43
q83 0 132.5 -36.5t49.5 -115.5v-256l25 -88l-5 -6l-61 -9l-6 4l-29 72q-1 -3 -3.5 -9t-12.5 -20t-23.5 -25t-39 -20t-56.5 -9q-62 0 -107 35.5t-45 111.5zM124 134q0 -33 22 -53.5t59 -20.5q22 0 51.5 7t47.5 15l19 7v169q-15 -50 -88 -50h-24q-34 0 -60.5 -16.5
t-26.5 -57.5z" />
    <glyph glyph-name="adieresis" unicode="&#xe4;" horiz-adv-x="474" 
d="M271 610l-5 5v78l5 5h73l5 -5v-78l-5 -5h-73zM134 610l-5 5v78l5 5h73l5 -5v-78l-5 -5h-73zM40 135q0 70 48 109q47 38 156 38h35q28 0 44 10v47q0 95 -103 95q-62 0 -99 -30l-8 1l-34 50l2 8q55 43 140 43q83 0 132.5 -36.5t49.5 -115.5v-256l25 -88l-5 -6l-61 -9l-6 4
l-29 72q-1 -3 -3.5 -9t-12.5 -20t-23.5 -25t-39 -20t-56.5 -9q-62 0 -107 35.5t-45 111.5zM124 134q0 -33 22 -53.5t59 -20.5q22 0 51.5 7t47.5 15l19 7v169q-15 -50 -88 -50h-24q-34 0 -60.5 -16.5t-26.5 -57.5z" />
    <glyph glyph-name="aring" unicode="&#xe5;" horiz-adv-x="474" 
d="M239 569q-33 0 -57 17.5t-24 48.5v13q0 31 24 48t57 17t57 -17t24 -48v-13q0 -31 -24 -48.5t-57 -17.5zM239 608q37 0 37 33t-37 33t-37 -33t37 -33zM40 135q0 70 48 109q47 38 156 38h35q28 0 44 10v47q0 95 -103 95q-62 0 -99 -30l-8 1l-34 50l2 8q55 43 140 43
q83 0 132.5 -36.5t49.5 -115.5v-256l25 -88l-5 -6l-61 -9l-6 4l-29 72q-1 -3 -3.5 -9t-12.5 -20t-23.5 -25t-39 -20t-56.5 -9q-62 0 -107 35.5t-45 111.5zM124 134q0 -33 22 -53.5t59 -20.5q22 0 51.5 7t47.5 15l19 7v169q-15 -50 -88 -50h-24q-34 0 -60.5 -16.5
t-26.5 -57.5z" />
    <glyph glyph-name="ae" unicode="&#xe6;" horiz-adv-x="739" 
d="M40 138q0 147 187 147h50q28 0 44 10v44q0 95 -103 95q-62 0 -99 -30l-8 1l-34 50l2 8q55 43 140 43q104 0 148 -62q47 62 141 62q88 0 129.5 -44t41.5 -105q0 -74 -44 -112t-117 -38q-98 0 -122 56l5 -37v-48q0 -57 30 -87.5t82 -30.5q78 0 109 53l7 2l60 -21l3 -6
q-18 -48 -64.5 -74t-110.5 -26q-132 0 -177 84q-5 -10 -13.5 -20.5t-26 -26.5t-46.5 -26.5t-64 -10.5q-64 0 -107 41t-43 109zM401 296q21 -16 105 -16q40 0 66.5 19t26.5 62q0 30 -23 51t-71 21q-104 0 -104 -115v-22zM122 138q0 -33 22 -55.5t59 -22.5q74 0 126 39
q-8 30 -8 62v100q-15 -50 -88 -50h-24q-34 0 -60.5 -16t-26.5 -57z" />
    <glyph glyph-name="ccedilla" unicode="&#xe7;" horiz-adv-x="472" 
d="M133 -103l7 3q22 -16 44 -16q68 0 68 67q0 13 -11 37q-85 4 -133.5 51t-48.5 122v171q0 78 52 126t143 48q58 0 104 -26t66 -76l-3 -6l-60 -21l-7 2q-29 55 -105 55q-51 0 -80.5 -30.5t-29.5 -87.5v-138q0 -57 29.5 -87.5t80.5 -30.5q81 0 110 53l7 2l60 -21l3 -6
q-35 -89 -152 -99q35 -35 35 -72q0 -43 -29 -68t-73 -25q-57 0 -88 32l-2 7z" />
    <glyph glyph-name="egrave" unicode="&#xe8;" horiz-adv-x="477" 
d="M246 569l-123 128l5 4h108l7 -4l60 -102l-1 -6l-50 -20h-6zM59 161v168q0 83 52 130t138 47q89 0 132 -44t43 -104q0 -72 -45.5 -109.5t-119.5 -37.5q-44 0 -75 14t-38.5 23.5t-11.5 18.5l5 -37v-52q0 -57 30 -87.5t82 -30.5q78 0 109 53l7 2l60 -21l3 -6
q-18 -48 -64.5 -74t-110.5 -26q-93 0 -144.5 44t-51.5 129zM139 300q43 -18 97 -18q104 0 104 80q0 29 -23.5 50.5t-70.5 21.5q-52 0 -79.5 -29.5t-27.5 -86.5v-18z" />
    <glyph glyph-name="eacute" unicode="&#xe9;" horiz-adv-x="477" 
d="M241 569l-50 20l-1 6l60 102l7 4h108l5 -4l-123 -128h-6zM59 161v168q0 83 52 130t138 47q89 0 132 -44t43 -104q0 -72 -45.5 -109.5t-119.5 -37.5q-44 0 -75 14t-38.5 23.5t-11.5 18.5l5 -37v-52q0 -57 30 -87.5t82 -30.5q78 0 109 53l7 2l60 -21l3 -6
q-18 -48 -64.5 -74t-110.5 -26q-93 0 -144.5 44t-51.5 129zM139 300q43 -18 97 -18q104 0 104 80q0 29 -23.5 50.5t-70.5 21.5q-52 0 -79.5 -29.5t-27.5 -86.5v-18z" />
    <glyph glyph-name="ecircumflex" unicode="&#xea;" horiz-adv-x="477" 
d="M172 569l-55 18l-2 7l92 102l9 5h60l9 -5l92 -102l-2 -7l-55 -18h-7l-67 78l-67 -78h-7zM59 161v168q0 83 52 130t138 47q89 0 132 -44t43 -104q0 -72 -45.5 -109.5t-119.5 -37.5q-44 0 -75 14t-38.5 23.5t-11.5 18.5l5 -37v-52q0 -57 30 -87.5t82 -30.5q78 0 109 53l7 2
l60 -21l3 -6q-18 -48 -64.5 -74t-110.5 -26q-93 0 -144.5 44t-51.5 129zM139 300q43 -18 97 -18q104 0 104 80q0 29 -23.5 50.5t-70.5 21.5q-52 0 -79.5 -29.5t-27.5 -86.5v-18z" />
    <glyph glyph-name="edieresis" unicode="&#xeb;" horiz-adv-x="477" 
d="M279 610l-5 5v78l5 5h73l5 -5v-78l-5 -5h-73zM142 610l-5 5v78l5 5h73l5 -5v-78l-5 -5h-73zM59 161v168q0 83 52 130t138 47q89 0 132 -44t43 -104q0 -72 -45.5 -109.5t-119.5 -37.5q-44 0 -75 14t-38.5 23.5t-11.5 18.5l5 -37v-52q0 -57 30 -87.5t82 -30.5q78 0 109 53
l7 2l60 -21l3 -6q-18 -48 -64.5 -74t-110.5 -26q-93 0 -144.5 44t-51.5 129zM139 300q43 -18 97 -18q104 0 104 80q0 29 -23.5 50.5t-70.5 21.5q-52 0 -79.5 -29.5t-27.5 -86.5v-18z" />
    <glyph glyph-name="igrave" unicode="&#xec;" horiz-adv-x="231" 
d="M114 569l-123 128l5 4h108l7 -4l60 -102l-1 -6l-50 -20h-6zM75 5v478l5 6l70 10l5 -4v-490l-5 -5h-70z" />
    <glyph glyph-name="iacute" unicode="&#xed;" horiz-adv-x="231" 
d="M109 569l-50 20l-1 6l60 102l7 4h108l5 -4l-123 -128h-6zM75 5v478l5 6l70 10l5 -4v-490l-5 -5h-70z" />
    <glyph glyph-name="icircumflex" unicode="&#xee;" horiz-adv-x="231" 
d="M40 569l-55 18l-2 7l92 102l9 5h60l9 -5l92 -102l-2 -7l-55 -18h-7l-67 78l-67 -78h-7zM75 5v478l5 6l70 10l5 -4v-490l-5 -5h-70z" />
    <glyph glyph-name="idieresis" unicode="&#xef;" horiz-adv-x="231" 
d="M147 610l-5 5v78l5 5h73l5 -5v-78l-5 -5h-73zM10 610l-5 5v78l5 5h73l5 -5v-78l-5 -5h-73zM75 5v478l5 6l70 10l5 -4v-490l-5 -5h-70z" />
    <glyph glyph-name="eth" unicode="&#xf0;" horiz-adv-x="500" 
d="M60 161v142q0 82 50.5 127.5t131.5 45.5q62 0 110 -34v27q0 67 -35 116l-108 -55l-6 2l-23 46l1 7l89 45q-31 22 -86 48l-4 7l22 53l8 4q81 -33 131 -75l72 37l6 -1l24 -47l-2 -6l-56 -30q43 -60 43 -131v-328q0 -82 -50.5 -127.5t-135.5 -45.5q-81 0 -131.5 45.5
t-50.5 127.5zM140 178q0 -56 29 -87t76 -31t75 31t28 87v120q0 106 -103 106q-47 0 -76 -30.5t-29 -86.5v-109z" />
    <glyph glyph-name="ntilde" unicode="&#xf1;" horiz-adv-x="525" 
d="M168 592l-36 27v7q21 35 42 50.5t53 15.5q30 0 57 -23t41 -23q15 0 48 33l7 2l36 -27v-7q-38 -66 -97 -66q-29 0 -56 22.5t-41 22.5q-18 0 -47 -32zM79 5v385l-25 94l5 6l61 9l6 -4l28 -70q3 8 9.5 18.5t21.5 26t43.5 26t65.5 10.5q69 0 114 -45.5t45 -127.5v-328l-5 -5
h-70l-5 5v312q0 60 -32 88.5t-80 28.5q-15 0 -102 -23v-406l-5 -5h-70z" />
    <glyph glyph-name="ograve" unicode="&#xf2;" horiz-adv-x="502" 
d="M253 569l-123 128l5 4h108l7 -4l60 -102l-1 -6l-50 -20h-6zM59 161v172q0 82 53.5 127.5t138.5 45.5t138.5 -45.5t53.5 -127.5v-172q0 -82 -53.5 -127.5t-138.5 -45.5t-138.5 45.5t-53.5 127.5zM139 178q0 -58 29 -88t83 -30q53 0 82.5 30.5t29.5 87.5v139q0 57 -29.5 87
t-82.5 30q-54 0 -83 -30t-29 -87v-139z" />
    <glyph glyph-name="oacute" unicode="&#xf3;" horiz-adv-x="502" 
d="M248 569l-50 20l-1 6l60 102l7 4h108l5 -4l-123 -128h-6zM59 161v172q0 82 53.5 127.5t138.5 45.5t138.5 -45.5t53.5 -127.5v-172q0 -82 -53.5 -127.5t-138.5 -45.5t-138.5 45.5t-53.5 127.5zM139 178q0 -58 29 -88t83 -30q53 0 82.5 30.5t29.5 87.5v139q0 57 -29.5 87
t-82.5 30q-54 0 -83 -30t-29 -87v-139z" />
    <glyph glyph-name="ocircumflex" unicode="&#xf4;" horiz-adv-x="502" 
d="M179 569l-55 18l-2 7l92 102l9 5h60l9 -5l92 -102l-2 -7l-55 -18h-7l-67 78l-67 -78h-7zM59 161v172q0 82 53.5 127.5t138.5 45.5t138.5 -45.5t53.5 -127.5v-172q0 -82 -53.5 -127.5t-138.5 -45.5t-138.5 45.5t-53.5 127.5zM139 178q0 -58 29 -88t83 -30q53 0 82.5 30.5
t29.5 87.5v139q0 57 -29.5 87t-82.5 30q-54 0 -83 -30t-29 -87v-139z" />
    <glyph glyph-name="otilde" unicode="&#xf5;" horiz-adv-x="502" 
d="M148 592l-36 27v7q21 35 42 50.5t53 15.5q30 0 57 -23t41 -23q15 0 48 33l7 2l36 -27v-7q-38 -66 -97 -66q-29 0 -56 22.5t-41 22.5q-18 0 -47 -32zM59 161v172q0 82 53.5 127.5t138.5 45.5t138.5 -45.5t53.5 -127.5v-172q0 -82 -53.5 -127.5t-138.5 -45.5t-138.5 45.5
t-53.5 127.5zM139 178q0 -58 29 -88t83 -30q53 0 82.5 30.5t29.5 87.5v139q0 57 -29.5 87t-82.5 30q-54 0 -83 -30t-29 -87v-139z" />
    <glyph glyph-name="odieresis" unicode="&#xf6;" horiz-adv-x="502" 
d="M286 610l-5 5v78l5 5h73l5 -5v-78l-5 -5h-73zM149 610l-5 5v78l5 5h73l5 -5v-78l-5 -5h-73zM59 161v172q0 82 53.5 127.5t138.5 45.5t138.5 -45.5t53.5 -127.5v-172q0 -82 -53.5 -127.5t-138.5 -45.5t-138.5 45.5t-53.5 127.5zM139 178q0 -58 29 -88t83 -30
q53 0 82.5 30.5t29.5 87.5v139q0 57 -29.5 87t-82.5 30q-54 0 -83 -30t-29 -87v-139z" />
    <glyph glyph-name="divide" unicode="&#xf7;" 
d="M227 360l-5 5v94l5 5h92l5 -5v-94l-5 -5h-92zM99 207l-5 5v69l5 5h358l4 -5l-18 -69l-6 -5h-338zM222 35v94l5 5h92l5 -5v-94l-5 -5h-92z" />
    <glyph glyph-name="oslash" unicode="&#xf8;" horiz-adv-x="507" 
d="M73 -10l31 54q-43 45 -43 117v172q0 82 53.5 127.5t138.5 45.5q58 0 104 -23l27 47l7 2l45 -17l2 -5l-35 -61q42 -47 42 -116v-172q0 -82 -53.5 -127.5t-138.5 -45.5q-57 0 -104 22l-27 -47l-6 -2l-41 24zM149 123l170 294q-28 17 -66 17q-54 0 -83 -30t-29 -87v-139
q0 -29 8 -55zM187 76q26 -16 66 -16q53 0 82.5 30.5t29.5 87.5v139q0 28 -8 52z" />
    <glyph glyph-name="ugrave" unicode="&#xf9;" horiz-adv-x="518" 
d="M264 569l-123 128l5 4h108l7 -4l60 -102l-1 -6l-50 -20h-6zM71 164v319l5 6l70 10l5 -4v-314q0 -62 29.5 -91.5t76.5 -29.5q12 0 37.5 7t45.5 14l19 7v395l5 6l70 10l5 -4v-397l25 -88l-5 -6l-61 -9l-6 4l-29 72q-11 -34 -44.5 -58.5t-94.5 -24.5q-69 0 -111 46t-42 130z
" />
    <glyph glyph-name="uacute" unicode="&#xfa;" horiz-adv-x="518" 
d="M209 589l-1 6l60 102l7 4h108l5 -4l-123 -128h-6zM71 164v319l5 6l70 10l5 -4v-314q0 -62 29.5 -91.5t76.5 -29.5q12 0 37.5 7t45.5 14l19 7v395l5 6l70 10l5 -4v-397l25 -88l-5 -6l-61 -9l-6 4l-29 72q-11 -34 -44.5 -58.5t-94.5 -24.5q-69 0 -111 46t-42 130z" />
    <glyph glyph-name="ucircumflex" unicode="&#xfb;" horiz-adv-x="518" 
d="M190 569l-55 18l-2 7l92 102l9 5h60l9 -5l92 -102l-2 -7l-55 -18h-7l-67 78l-67 -78h-7zM71 164v319l5 6l70 10l5 -4v-314q0 -62 29.5 -91.5t76.5 -29.5q12 0 37.5 7t45.5 14l19 7v395l5 6l70 10l5 -4v-397l25 -88l-5 -6l-61 -9l-6 4l-29 72q-11 -34 -44.5 -58.5
t-94.5 -24.5q-69 0 -111 46t-42 130z" />
    <glyph glyph-name="udieresis" unicode="&#xfc;" horiz-adv-x="518" 
d="M297 610l-5 5v78l5 5h73l5 -5v-78l-5 -5h-73zM160 610l-5 5v78l5 5h73l5 -5v-78l-5 -5h-73zM71 164v319l5 6l70 10l5 -4v-314q0 -62 29.5 -91.5t76.5 -29.5q12 0 37.5 7t45.5 14l19 7v395l5 6l70 10l5 -4v-397l25 -88l-5 -6l-61 -9l-6 4l-29 72q-11 -34 -44.5 -58.5
t-94.5 -24.5q-69 0 -111 46t-42 130z" />
    <glyph glyph-name="yacute" unicode="&#xfd;" horiz-adv-x="465" 
d="M220 569l-50 20l-1 6l60 102l7 4h108l5 -4l-123 -128h-6zM4 -128q32 -31 78 -31q60 0 93 91l31 84l-11 4l-8 7l-172 456l5 6l78 10l5 -4l117 -360l15 -53l12 44l114 358l6 5l80 10l3 -5l-209 -595q-45 -130 -157 -130q-62 0 -115 39l-2 8l30 54z" />
    <glyph glyph-name="thorn" unicode="&#xfe;" horiz-adv-x="504" 
d="M152 23l4 -46v-187l-5 -6l-70 -10l-5 4v933l5 6l70 10l5 -4v-249l-4 -41q8 15 20.5 29.5t44 29t72.5 14.5q69 0 112 -46t43 -129v-170q0 -82 -51 -127.5t-131 -45.5q-65 0 -110 35zM156 166q0 -106 103 -106q47 0 76 31t29 87v136q0 62 -30 91t-78 29q-31 0 -100 -23
v-245z" />
    <glyph glyph-name="ydieresis" unicode="&#xff;" horiz-adv-x="465" 
d="M258 610l-5 5v78l5 5h73l5 -5v-78l-5 -5h-73zM121 610l-5 5v78l5 5h73l5 -5v-78l-5 -5h-73zM4 -128q32 -31 78 -31q60 0 93 91l31 84l-11 4l-8 7l-172 456l5 6l78 10l5 -4l117 -360l15 -53l12 44l114 358l6 5l80 10l3 -5l-209 -595q-45 -130 -157 -130q-62 0 -115 39
l-2 8l30 54z" />
    <glyph glyph-name="Amacron" unicode="&#x100;" horiz-adv-x="590" 
d="M186 772l-5 5v58l5 5h224l4 -5l-12 -58l-6 -5h-210zM12 5l233 660l6 5l84 11l6 -4l237 -672l-3 -5h-80l-6 5l-55 161h-279l-54 -161l-5 -5h-81zM181 242h228l-104 308l-10 43l-10 -43z" />
    <glyph glyph-name="amacron" unicode="&#x101;" horiz-adv-x="474" 
d="M129 608l-5 5v58l5 5h224l4 -5l-12 -58l-6 -5h-210zM40 135q0 70 48 109q47 38 156 38h35q28 0 44 10v47q0 95 -103 95q-62 0 -99 -30l-8 1l-34 50l2 8q55 43 140 43q83 0 132.5 -36.5t49.5 -115.5v-256l25 -88l-5 -6l-61 -9l-6 4l-29 72q-1 -3 -3.5 -9t-12.5 -20
t-23.5 -25t-39 -20t-56.5 -9q-62 0 -107 35.5t-45 111.5zM124 134q0 -33 22 -53.5t59 -20.5q22 0 51.5 7t47.5 15l19 7v169q-15 -50 -88 -50h-24q-34 0 -60.5 -16.5t-26.5 -57.5z" />
    <glyph glyph-name="Abreve" unicode="&#x102;" horiz-adv-x="590" 
d="M295 733q-50 0 -84.5 29.5t-34.5 76.5q0 7 2 21l6 5h48l5 -5v-9q0 -26 14.5 -42t43.5 -16t43.5 16t14.5 42v9l5 5h48l6 -5q2 -14 2 -21q0 -47 -34.5 -76.5t-84.5 -29.5zM12 5l233 660l6 5l84 11l6 -4l237 -672l-3 -5h-80l-6 5l-55 161h-279l-54 -161l-5 -5h-81zM181 242
h228l-104 308l-10 43l-10 -43z" />
    <glyph glyph-name="abreve" unicode="&#x103;" horiz-adv-x="474" 
d="M239 569q-50 0 -84.5 29.5t-34.5 76.5q0 7 2 21l6 5h48l5 -5v-9q0 -26 14.5 -42t43.5 -16t43.5 16t14.5 42v9l5 5h48l6 -5q2 -14 2 -21q0 -47 -34.5 -76.5t-84.5 -29.5zM40 135q0 70 48 109q47 38 156 38h35q28 0 44 10v47q0 95 -103 95q-62 0 -99 -30l-8 1l-34 50l2 8
q55 43 140 43q83 0 132.5 -36.5t49.5 -115.5v-256l25 -88l-5 -6l-61 -9l-6 4l-29 72q-1 -3 -3.5 -9t-12.5 -20t-23.5 -25t-39 -20t-56.5 -9q-62 0 -107 35.5t-45 111.5zM124 134q0 -33 22 -53.5t59 -20.5q22 0 51.5 7t47.5 15l19 7v169q-15 -50 -88 -50h-24
q-34 0 -60.5 -16.5t-26.5 -57.5z" />
    <glyph glyph-name="Aogonek" unicode="&#x104;" horiz-adv-x="590" 
d="M12 5l231 660l6 5l88 11l6 -4l235 -672l-3 -5q-4 -1 -11.5 -3.5t-26 -12t-32.5 -20.5t-25.5 -30t-11.5 -41q0 -26 16 -40t55 -16l5 -7l-11 -44l-9 -5q-58 0 -97.5 26.5t-39.5 70.5q0 41 29.5 74.5t69.5 54.5l-52 157h-278l-52 -159l-5 -5h-84zM182 244h226l-103 306
l-10 43l-10 -43z" />
    <glyph glyph-name="aogonek" unicode="&#x105;" horiz-adv-x="474" 
d="M40 135q0 70 48 109q47 38 156 38h35q28 0 44 10v47q0 95 -103 95q-62 0 -99 -30l-8 1l-34 50l2 8q55 43 140 43q83 0 132.5 -36.5t49.5 -115.5v-256l24 -86l-4 -8q-76 -71 -76 -111q0 -26 16 -40t55 -16l5 -7l-11 -44l-9 -5q-58 0 -97.5 26.5t-39.5 70.5q0 71 88 124
l-27 69q-1 -3 -3.5 -9t-12.5 -20t-23.5 -25t-39 -20t-56.5 -9q-62 0 -107 35.5t-45 111.5zM124 134q0 -33 22 -53.5t59 -20.5q22 0 51.5 7t47.5 15l19 7v169q-15 -50 -88 -50h-24q-34 0 -60.5 -16.5t-26.5 -57.5z" />
    <glyph glyph-name="Cacute" unicode="&#x106;" horiz-adv-x="627" 
d="M280 753l-1 6l60 102l7 4h108l5 -4l-123 -128h-6zM71 233v204q0 119 71 183.5t191 64.5q83 0 145 -36t89 -102l-3 -6l-67 -28l-7 2q-20 42 -62 66t-95 24q-79 0 -127.5 -45.5t-48.5 -129.5v-188q0 -86 48 -130t128 -44q126 0 169 93l7 2l65 -25l3 -6q-25 -71 -88 -107.5
t-156 -36.5q-121 0 -191.5 63.5t-70.5 181.5z" />
    <glyph glyph-name="cacute" unicode="&#x107;" horiz-adv-x="472" 
d="M248 569l-50 20l-1 6l60 102l7 4h108l5 -4l-123 -128h-6zM59 161v171q0 78 52 126t143 48q58 0 104 -26t66 -76l-3 -6l-60 -21l-7 2q-29 55 -105 55q-51 0 -80.5 -30.5t-29.5 -87.5v-138q0 -57 29.5 -87.5t80.5 -30.5q81 0 110 53l7 2l60 -21l3 -6q-19 -48 -65 -74
t-110 -26q-91 0 -143 47.5t-52 125.5z" />
    <glyph glyph-name="Ccircumflex" unicode="&#x108;" horiz-adv-x="627" 
d="M261 733l-55 18l-2 7l92 102l9 5h60l9 -5l92 -102l-2 -7l-55 -18h-7l-67 78l-67 -78h-7zM71 233v204q0 119 71 183.5t191 64.5q83 0 145 -36t89 -102l-3 -6l-67 -28l-7 2q-20 42 -62 66t-95 24q-79 0 -127.5 -45.5t-48.5 -129.5v-188q0 -86 48 -130t128 -44q126 0 169 93
l7 2l65 -25l3 -6q-25 -71 -88 -107.5t-156 -36.5q-121 0 -191.5 63.5t-70.5 181.5z" />
    <glyph glyph-name="ccircumflex" unicode="&#x109;" horiz-adv-x="472" 
d="M179 569l-55 18l-2 7l92 102l9 5h60l9 -5l92 -102l-2 -7l-55 -18h-7l-67 78l-67 -78h-7zM59 161v171q0 78 52 126t143 48q58 0 104 -26t66 -76l-3 -6l-60 -21l-7 2q-29 55 -105 55q-51 0 -80.5 -30.5t-29.5 -87.5v-138q0 -57 29.5 -87.5t80.5 -30.5q81 0 110 53l7 2
l60 -21l3 -6q-19 -48 -65 -74t-110 -26q-91 0 -143 47.5t-52 125.5z" />
    <glyph glyph-name="Cdotaccent" unicode="&#x10a;" horiz-adv-x="627" 
d="M290 772l-5 5v83l5 5h83l5 -5v-83l-5 -5h-83zM71 233v204q0 119 71 183.5t191 64.5q83 0 145 -36t89 -102l-3 -6l-67 -28l-7 2q-20 42 -62 66t-95 24q-79 0 -127.5 -45.5t-48.5 -129.5v-188q0 -86 48 -130t128 -44q126 0 169 93l7 2l65 -25l3 -6q-25 -71 -88 -107.5
t-156 -36.5q-121 0 -191.5 63.5t-70.5 181.5z" />
    <glyph glyph-name="cdotaccent" unicode="&#x10b;" horiz-adv-x="472" 
d="M210 608l-5 5v83l5 5h83l5 -5v-83l-5 -5h-83zM59 161v171q0 78 52 126t143 48q58 0 104 -26t66 -76l-3 -6l-60 -21l-7 2q-29 55 -105 55q-51 0 -80.5 -30.5t-29.5 -87.5v-138q0 -57 29.5 -87.5t80.5 -30.5q81 0 110 53l7 2l60 -21l3 -6q-19 -48 -65 -74t-110 -26
q-91 0 -143 47.5t-52 125.5z" />
    <glyph glyph-name="Ccaron" unicode="&#x10c;" horiz-adv-x="627" 
d="M306 740l-9 5l-92 102l2 7l55 18h7l67 -78l67 78h7l55 -18l2 -7l-92 -102l-9 -5h-60zM71 233v204q0 119 71 183.5t191 64.5q83 0 145 -36t89 -102l-3 -6l-67 -28l-7 2q-20 42 -62 66t-95 24q-79 0 -127.5 -45.5t-48.5 -129.5v-188q0 -86 48 -130t128 -44q126 0 169 93
l7 2l65 -25l3 -6q-25 -71 -88 -107.5t-156 -36.5q-121 0 -191.5 63.5t-70.5 181.5z" />
    <glyph glyph-name="ccaron" unicode="&#x10d;" horiz-adv-x="472" 
d="M224 576l-9 5l-92 102l2 7l55 18h7l67 -78l67 78h7l55 -18l2 -7l-92 -102l-9 -5h-60zM59 161v171q0 78 52 126t143 48q58 0 104 -26t66 -76l-3 -6l-60 -21l-7 2q-29 55 -105 55q-51 0 -80.5 -30.5t-29.5 -87.5v-138q0 -57 29.5 -87.5t80.5 -30.5q81 0 110 53l7 2l60 -21
l3 -6q-19 -48 -65 -74t-110 -26q-91 0 -143 47.5t-52 125.5z" />
    <glyph glyph-name="Dcaron" unicode="&#x10e;" horiz-adv-x="656" 
d="M293 740l-9 5l-92 102l2 7l55 18h7l67 -78l67 78h7l55 -18l2 -7l-92 -102l-9 -5h-60zM93 5v665l5 5h224q120 0 191.5 -64.5t71.5 -183.5v-182q0 -118 -71 -181.5t-192 -63.5h-224zM177 80h145q80 0 128.5 44t48.5 130v166q0 84 -49 129.5t-128 45.5h-145v-515z" />
    <glyph glyph-name="dcaron" unicode="&#x10f;" horiz-adv-x="537" 
d="M60 164v169q0 82 50.5 127.5t131.5 45.5q62 0 110 -34l-4 44v195l5 6l70 10l5 -4v-625l25 -88l-5 -6l-61 -9l-6 4l-29 72q-11 -34 -44.5 -58.5t-94.5 -24.5q-69 0 -111 46t-42 130zM496 567l-5 6l29 142l6 4h78l5 -4l-72 -152l-7 -3zM140 181q0 -62 29.5 -91.5
t76.5 -29.5q12 0 37.5 7t44.5 14l20 7v240q0 106 -103 106q-47 0 -76 -30.5t-29 -86.5v-136z" />
    <glyph glyph-name="Dcroat" unicode="&#x110;" horiz-adv-x="670" 
d="M107 5v291h-46l-5 5v70l5 5h46v294l5 5h221q122 0 194 -64t72 -181v-187q0 -118 -71.5 -180.5t-194.5 -62.5h-221zM191 80h142q81 0 130.5 43t49.5 129v169q0 85 -50 129.5t-130 44.5h-142v-219h127l4 -5l-18 -70l-6 -5h-107v-216z" />
    <glyph glyph-name="dcroat" unicode="&#x111;" horiz-adv-x="507" 
d="M60 164v169q0 82 50.5 127.5t131.5 45.5q62 0 110 -34l-4 44v56h-172l-5 5v58l5 5h172v71l5 6l70 10l5 -4v-83h77l4 -5l-12 -58l-6 -5h-63v-474l25 -88l-5 -6l-61 -9l-6 4l-29 72q-11 -34 -44.5 -58.5t-94.5 -24.5q-69 0 -111 46t-42 130zM140 181q0 -62 29.5 -91.5
t76.5 -29.5q12 0 37.5 7t44.5 14l20 7v240q0 106 -103 106q-47 0 -76 -30.5t-29 -86.5v-136z" />
    <glyph glyph-name="Emacron" unicode="&#x112;" horiz-adv-x="513" 
d="M170 772l-5 5v58l5 5h224l4 -5l-12 -58l-6 -5h-210zM93 5v665l5 5h347l5 -5v-70l-5 -5h-268v-200h233l4 -5l-18 -70l-6 -5h-213v-235h269l4 -5l-10 -70l-6 -5h-336z" />
    <glyph glyph-name="emacron" unicode="&#x113;" horiz-adv-x="477" 
d="M137 608l-5 5v58l5 5h224l4 -5l-12 -58l-6 -5h-210zM59 161v168q0 83 52 130t138 47q89 0 132 -44t43 -104q0 -72 -45.5 -109.5t-119.5 -37.5q-44 0 -75 14t-38.5 23.5t-11.5 18.5l5 -37v-52q0 -57 30 -87.5t82 -30.5q78 0 109 53l7 2l60 -21l3 -6q-18 -48 -64.5 -74
t-110.5 -26q-93 0 -144.5 44t-51.5 129zM139 300q43 -18 97 -18q104 0 104 80q0 29 -23.5 50.5t-70.5 21.5q-52 0 -79.5 -29.5t-27.5 -86.5v-18z" />
    <glyph glyph-name="Ebreve" unicode="&#x114;" horiz-adv-x="513" 
d="M280 733q-50 0 -84.5 29.5t-34.5 76.5q0 7 2 21l6 5h48l5 -5v-9q0 -26 14.5 -42t43.5 -16t43.5 16t14.5 42v9l5 5h48l6 -5q2 -14 2 -21q0 -47 -34.5 -76.5t-84.5 -29.5zM93 5v665l5 5h347l5 -5v-70l-5 -5h-268v-200h233l4 -5l-18 -70l-6 -5h-213v-235h269l4 -5l-10 -70
l-6 -5h-336z" />
    <glyph glyph-name="ebreve" unicode="&#x115;" horiz-adv-x="477" 
d="M247 569q-50 0 -84.5 29.5t-34.5 76.5q0 7 2 21l6 5h48l5 -5v-9q0 -26 14.5 -42t43.5 -16t43.5 16t14.5 42v9l5 5h48l6 -5q2 -14 2 -21q0 -47 -34.5 -76.5t-84.5 -29.5zM59 161v168q0 83 52 130t138 47q89 0 132 -44t43 -104q0 -72 -45.5 -109.5t-119.5 -37.5
q-44 0 -75 14t-38.5 23.5t-11.5 18.5l5 -37v-52q0 -57 30 -87.5t82 -30.5q78 0 109 53l7 2l60 -21l3 -6q-18 -48 -64.5 -74t-110.5 -26q-93 0 -144.5 44t-51.5 129zM139 300q43 -18 97 -18q104 0 104 80q0 29 -23.5 50.5t-70.5 21.5q-52 0 -79.5 -29.5t-27.5 -86.5v-18z" />
    <glyph glyph-name="Edotaccent" unicode="&#x116;" horiz-adv-x="513" 
d="M236 772l-5 5v83l5 5h83l5 -5v-83l-5 -5h-83zM93 5v665l5 5h347l5 -5v-70l-5 -5h-268v-200h233l4 -5l-18 -70l-6 -5h-213v-235h269l4 -5l-10 -70l-6 -5h-336z" />
    <glyph glyph-name="edotaccent" unicode="&#x117;" horiz-adv-x="477" 
d="M203 608l-5 5v83l5 5h83l5 -5v-83l-5 -5h-83zM59 161v168q0 83 52 130t138 47q89 0 132 -44t43 -104q0 -72 -45.5 -109.5t-119.5 -37.5q-44 0 -75 14t-38.5 23.5t-11.5 18.5l5 -37v-52q0 -57 30 -87.5t82 -30.5q78 0 109 53l7 2l60 -21l3 -6q-18 -48 -64.5 -74
t-110.5 -26q-93 0 -144.5 44t-51.5 129zM139 300q43 -18 97 -18q104 0 104 80q0 29 -23.5 50.5t-70.5 21.5q-52 0 -79.5 -29.5t-27.5 -86.5v-18z" />
    <glyph glyph-name="Eogonek" unicode="&#x118;" horiz-adv-x="513" 
d="M93 5v665l5 5h347l5 -5v-70l-5 -5h-268v-200h233l4 -5l-18 -70l-6 -5h-213v-235h269l4 -5l-10 -70q-77 -72 -77 -112q0 -26 16 -40t55 -16l5 -7l-11 -44l-9 -5q-58 0 -97.5 26.5t-39.5 70.5q0 70 85 122h-269z" />
    <glyph glyph-name="eogonek" unicode="&#x119;" horiz-adv-x="477" 
d="M59 161v168q0 83 52 130t138 47q89 0 132 -44t43 -104q0 -72 -45.5 -109.5t-119.5 -37.5q-44 0 -75 14t-38.5 23.5t-11.5 18.5l5 -37v-52q0 -57 30 -87.5t82 -30.5q78 0 109 53l7 2l60 -21l3 -6q-9 -23 -34 -49.5t-49 -46.5t-43 -47t-19 -52q0 -26 16 -40t55 -16l5 -7
l-11 -44l-9 -5q-58 0 -97.5 26.5t-39.5 70.5q0 66 75 111q-16 -1 -24 -1q-93 0 -144.5 44t-51.5 129zM139 300q43 -18 97 -18q104 0 104 80q0 29 -23.5 50.5t-70.5 21.5q-52 0 -79.5 -29.5t-27.5 -86.5v-18z" />
    <glyph glyph-name="Ecaron" unicode="&#x11a;" horiz-adv-x="513" 
d="M255 740l-9 5l-92 102l2 7l55 18h7l67 -78l67 78h7l55 -18l2 -7l-92 -102l-9 -5h-60zM93 5v665l5 5h347l5 -5v-70l-5 -5h-268v-200h233l4 -5l-18 -70l-6 -5h-213v-235h269l4 -5l-10 -70l-6 -5h-336z" />
    <glyph glyph-name="ecaron" unicode="&#x11b;" horiz-adv-x="477" 
d="M217 576l-9 5l-92 102l2 7l55 18h7l67 -78l67 78h7l55 -18l2 -7l-92 -102l-9 -5h-60zM59 161v168q0 83 52 130t138 47q89 0 132 -44t43 -104q0 -72 -45.5 -109.5t-119.5 -37.5q-44 0 -75 14t-38.5 23.5t-11.5 18.5l5 -37v-52q0 -57 30 -87.5t82 -30.5q78 0 109 53l7 2
l60 -21l3 -6q-18 -48 -64.5 -74t-110.5 -26q-93 0 -144.5 44t-51.5 129zM139 300q43 -18 97 -18q104 0 104 80q0 29 -23.5 50.5t-70.5 21.5q-52 0 -79.5 -29.5t-27.5 -86.5v-18z" />
    <glyph glyph-name="Gcircumflex" unicode="&#x11c;" horiz-adv-x="653" 
d="M256 733l-55 18l-2 7l92 102l9 5h60l9 -5l92 -102l-2 -7l-55 -18h-7l-67 78l-67 -78h-7zM71 233v204q0 119 71 183.5t191 64.5q83 0 145 -36t89 -102l-3 -6l-67 -28l-7 2q-20 42 -62 66t-95 24q-79 0 -127.5 -45.5t-48.5 -129.5v-188q0 -86 48 -130t128 -44
q81 0 129.5 44t48.5 130v23h-115l-6 5l-10 70l4 5h206l5 -5v-107q0 -119 -69.5 -182t-192.5 -63q-121 0 -191.5 63.5t-70.5 181.5z" />
    <glyph glyph-name="gcircumflex" unicode="&#x11d;" horiz-adv-x="486" 
d="M159 569l-55 18l-2 7l92 102l9 5h60l9 -5l92 -102l-2 -7l-55 -18h-7l-67 78l-67 -78h-7zM102 61q0 55 45 83q-4 1 -11.5 4t-26 15.5t-32.5 30t-25.5 50.5t-11.5 73q0 87 50 134.5t138 47.5h99l110 23l6 -4l10 -55l-4 -7l-68 -19q24 -14 36.5 -48t12.5 -74
q0 -84 -51.5 -134.5t-140.5 -50.5l-64 5q-6 -15 -6 -30q0 -30 16 -47t44 -17h62q71 0 109 -36.5t38 -95.5q0 -67 -55.5 -103.5t-132.5 -36.5q-163 0 -210 96l2 7l60 27l7 -2l3 -6t12 -13.5t24 -17t40.5 -13.5t59.5 -6q52 0 81 20.5t29 50.5q0 23 -18 40t-49 17h-62
q-59 0 -92.5 27.5t-33.5 64.5zM233 201q118 0 118 116q0 117 -118 117q-53 0 -83.5 -30t-30.5 -87q0 -116 114 -116z" />
    <glyph glyph-name="Gbreve" unicode="&#x11e;" horiz-adv-x="653" 
d="M334 733q-50 0 -84.5 29.5t-34.5 76.5q0 7 2 21l6 5h48l5 -5v-9q0 -26 14.5 -42t43.5 -16t43.5 16t14.5 42v9l5 5h48l6 -5q2 -14 2 -21q0 -47 -34.5 -76.5t-84.5 -29.5zM71 233v204q0 119 71 183.5t191 64.5q83 0 145 -36t89 -102l-3 -6l-67 -28l-7 2q-20 42 -62 66
t-95 24q-79 0 -127.5 -45.5t-48.5 -129.5v-188q0 -86 48 -130t128 -44q81 0 129.5 44t48.5 130v23h-115l-6 5l-10 70l4 5h206l5 -5v-107q0 -119 -69.5 -182t-192.5 -63q-121 0 -191.5 63.5t-70.5 181.5z" />
    <glyph glyph-name="gbreve" unicode="&#x11f;" horiz-adv-x="486" 
d="M234 569q-50 0 -84.5 29.5t-34.5 76.5q0 7 2 21l6 5h48l5 -5v-9q0 -26 14.5 -42t43.5 -16t43.5 16t14.5 42v9l5 5h48l6 -5q2 -14 2 -21q0 -47 -34.5 -76.5t-84.5 -29.5zM102 61q0 55 45 83q-4 1 -11.5 4t-26 15.5t-32.5 30t-25.5 50.5t-11.5 73q0 87 50 134.5t138 47.5
h99l110 23l6 -4l10 -55l-4 -7l-68 -19q24 -14 36.5 -48t12.5 -74q0 -84 -51.5 -134.5t-140.5 -50.5l-64 5q-6 -15 -6 -30q0 -30 16 -47t44 -17h62q71 0 109 -36.5t38 -95.5q0 -67 -55.5 -103.5t-132.5 -36.5q-163 0 -210 96l2 7l60 27l7 -2l3 -6t12 -13.5t24 -17t40.5 -13.5
t59.5 -6q52 0 81 20.5t29 50.5q0 23 -18 40t-49 17h-62q-59 0 -92.5 27.5t-33.5 64.5zM233 201q118 0 118 116q0 117 -118 117q-53 0 -83.5 -30t-30.5 -87q0 -116 114 -116z" />
    <glyph glyph-name="Gdotaccent" unicode="&#x120;" horiz-adv-x="653" 
d="M290 772l-5 5v83l5 5h83l5 -5v-83l-5 -5h-83zM71 233v204q0 119 71 183.5t191 64.5q83 0 145 -36t89 -102l-3 -6l-67 -28l-7 2q-20 42 -62 66t-95 24q-79 0 -127.5 -45.5t-48.5 -129.5v-188q0 -86 48 -130t128 -44q81 0 129.5 44t48.5 130v23h-115l-6 5l-10 70l4 5h206
l5 -5v-107q0 -119 -69.5 -182t-192.5 -63q-121 0 -191.5 63.5t-70.5 181.5z" />
    <glyph glyph-name="gdotaccent" unicode="&#x121;" horiz-adv-x="486" 
d="M190 608l-5 5v83l5 5h83l5 -5v-83l-5 -5h-83zM102 61q0 55 45 83q-4 1 -11.5 4t-26 15.5t-32.5 30t-25.5 50.5t-11.5 73q0 87 50 134.5t138 47.5h99l110 23l6 -4l10 -55l-4 -7l-68 -19q24 -14 36.5 -48t12.5 -74q0 -84 -51.5 -134.5t-140.5 -50.5l-64 5q-6 -15 -6 -30
q0 -30 16 -47t44 -17h62q71 0 109 -36.5t38 -95.5q0 -67 -55.5 -103.5t-132.5 -36.5q-163 0 -210 96l2 7l60 27l7 -2l3 -6t12 -13.5t24 -17t40.5 -13.5t59.5 -6q52 0 81 20.5t29 50.5q0 23 -18 40t-49 17h-62q-59 0 -92.5 27.5t-33.5 64.5zM233 201q118 0 118 116
q0 117 -118 117q-53 0 -83.5 -30t-30.5 -87q0 -116 114 -116z" />
    <glyph glyph-name="Gcommaaccent" unicode="&#x122;" horiz-adv-x="653" 
d="M71 233v204q0 119 71 183.5t191 64.5q83 0 145 -36t89 -102l-3 -6l-67 -28l-7 2q-20 42 -62 66t-95 24q-79 0 -127.5 -45.5t-48.5 -129.5v-188q0 -86 48 -130t128 -44q81 0 129.5 44t48.5 130v23h-115l-6 5l-10 70l4 5h206l5 -5v-107q0 -119 -69.5 -182t-192.5 -63
q-121 0 -191.5 63.5t-70.5 181.5zM290 -51l6 4h78l5 -4l-72 -152l-7 -3l-34 7l-5 6z" />
    <glyph glyph-name="gcommaaccent" unicode="&#x123;" horiz-adv-x="486" 
d="M194 567l-5 4l72 152l7 3l34 -7l5 -6l-29 -142l-6 -4h-78zM102 61q0 55 45 83q-4 1 -11.5 4t-26 15.5t-32.5 30t-25.5 50.5t-11.5 73q0 87 50 134.5t138 47.5h99l110 23l6 -4l10 -55l-4 -7l-68 -19q24 -14 36.5 -48t12.5 -74q0 -84 -51.5 -134.5t-140.5 -50.5l-64 5
q-6 -15 -6 -30q0 -30 16 -47t44 -17h62q71 0 109 -36.5t38 -95.5q0 -67 -55.5 -103.5t-132.5 -36.5q-163 0 -210 96l2 7l60 27l7 -2l3 -6t12 -13.5t24 -17t40.5 -13.5t59.5 -6q52 0 81 20.5t29 50.5q0 23 -18 40t-49 17h-62q-59 0 -92.5 27.5t-33.5 64.5zM233 201
q118 0 118 116q0 117 -118 117q-53 0 -83.5 -30t-30.5 -87q0 -116 114 -116z" />
    <glyph glyph-name="Hcircumflex" unicode="&#x124;" horiz-adv-x="711" 
d="M224 751l-2 7l92 102l9 5h60l9 -5l92 -102l-2 -7l-55 -18h-7l-67 78l-67 -78h-7zM93 5v660l5 6l74 10l5 -4v-283h356v271l5 6l74 10l5 -4v-672l-5 -5h-74l-5 5v309h-356v-309l-5 -5h-74z" />
    <glyph glyph-name="hcircumflex" unicode="&#x125;" horiz-adv-x="522" 
d="M43 750l-55 18l-2 7l92 102l9 5h60l9 -5l92 -102l-2 -7l-55 -18h-7l-67 78l-67 -78h-7zM76 5v660l5 6l70 10l5 -4v-205l-5 -44q4 10 12 20.5t24.5 25t44.5 23.5t63 9q69 0 111.5 -45t42.5 -128v-328l-5 -5h-70l-5 5v312q0 61 -30 89t-78 28q-22 0 -105 -23v-406l-5 -5
h-70z" />
    <glyph glyph-name="Hbar" unicode="&#x126;" horiz-adv-x="772" 
d="M119 5v501h-73l-5 5v63l5 5h73v86l5 6l74 10l5 -4v-98h356v86l5 6l74 10l5 -4v-98h94l5 -5l-14 -63l-7 -5h-78v-501l-5 -5h-74l-5 5v309h-356v-309l-5 -5h-74zM203 394h356v112h-356v-112z" />
    <glyph glyph-name="hbar" unicode="&#x127;" horiz-adv-x="522" 
d="M76 5v564h-66l-5 5v58l5 5h66v74l5 6l70 10l5 -4v-86h198l5 -5l-14 -58l-7 -5h-182v-97l-5 -44q4 10 12 20.5t24.5 25t44.5 23.5t63 9q69 0 111.5 -45t42.5 -128v-328l-5 -5h-70l-5 5v312q0 61 -30 89t-78 28q-22 0 -105 -23v-406l-5 -5h-70z" />
    <glyph glyph-name="Itilde" unicode="&#x128;" horiz-adv-x="271" 
d="M33 756l-36 27v7q21 35 42 50.5t53 15.5q30 0 57 -23t41 -23q15 0 48 33l7 2l36 -27v-7q-37 -66 -97 -66q-28 0 -56 22.5t-41 22.5q-18 0 -47 -32zM98 5v660l5 6l74 10l5 -4v-672l-5 -5h-74z" />
    <glyph glyph-name="itilde" unicode="&#x129;" horiz-adv-x="231" 
d="M9 592l-36 27v7q21 35 42 50.5t53 15.5q30 0 57 -23t41 -23q15 0 48 33l7 2l36 -27v-7q-37 -66 -97 -66q-28 0 -56 22.5t-41 22.5q-18 0 -47 -32zM75 5v478l5 6l70 10l5 -4v-490l-5 -5h-70z" />
    <glyph glyph-name="imacron" unicode="&#x12b;" horiz-adv-x="231" 
d="M5 608l-5 5v58l5 5h224l4 -5l-12 -58l-6 -5h-210zM75 5v478l5 6l70 10l5 -4v-490l-5 -5h-70z" />
    <glyph glyph-name="Iogonek" unicode="&#x12e;" horiz-adv-x="271" 
d="M93 0v665l5 6l74 10l5 -4v-668l-5 -9q-72 -65 -72 -107q0 -26 16 -40t55 -16l5 -7l-11 -44l-9 -5q-58 0 -97.5 26.5t-39.5 70.5q0 29 18.5 59.5t36.5 46.5z" />
    <glyph glyph-name="iogonek" unicode="&#x12f;" horiz-adv-x="231" 
d="M74 609l-5 5v83l5 5h83l5 -5v-83l-5 -5h-83zM75 5v478l5 6l70 10l5 -4v-487l-5 -8q-72 -65 -72 -107q0 -26 16 -40t55 -16l5 -7l-11 -44l-9 -5q-58 0 -97.5 26.5t-39.5 70.5q0 69 83 122z" />
    <glyph glyph-name="Idotaccent" unicode="&#x130;" horiz-adv-x="271" 
d="M95 772l-5 5v83l5 5h83l5 -5v-83l-5 -5h-83zM93 5v660l5 6l74 10l5 -4v-672l-5 -5h-74z" />
    <glyph glyph-name="dotlessi" unicode="&#x131;" horiz-adv-x="231" 
d="M75 5v478l5 6l70 10l5 -4v-490l-5 -5h-70z" />
    <glyph glyph-name="IJ" unicode="&#x132;" horiz-adv-x="637" 
d="M264 31l30 62l8 1q34 -26 73 -26q32 0 60 26.5t28 83.5v487l5 6l74 10l5 -4v-507q0 -83 -46 -132.5t-121 -49.5q-68 0 -115 36zM93 5v660l5 6l74 10l5 -4v-672l-5 -5h-74z" />
    <glyph glyph-name="ij" unicode="&#x133;" horiz-adv-x="481" 
d="M324 608l-5 5v83l5 5h83l5 -5v-83l-5 -5h-83zM74 608l-5 5v83l5 5h83l5 -5v-83l-5 -5h-83zM157 -128l5 1q31 -32 77 -32q33 0 59.5 30t26.5 90v522l5 6l70 10l5 -4v-540q0 -87 -43.5 -136.5t-118.5 -49.5q-63 0 -116 39l-2 6zM75 5v478l5 6l70 10l5 -4v-490l-5 -5h-70z
" />
    <glyph glyph-name="Jcircumflex" unicode="&#x134;" horiz-adv-x="377" 
d="M170 733l-55 18l-2 7l92 102l9 5h60l9 -5l92 -102l-2 -7l-55 -18h-7l-67 78l-67 -78h-7zM5 24l-1 7l30 62l8 1q34 -26 73 -26q32 0 60 26.5t28 83.5v487l5 6l74 10l5 -4v-507q0 -83 -46 -132.5t-121 -49.5q-68 0 -115 36z" />
    <glyph glyph-name="jcircumflex" unicode="&#x135;" horiz-adv-x="231" 
d="M40 569l-55 18l-2 7l92 102l9 5h60l9 -5l92 -102l-2 -7l-55 -18h-7l-67 78l-67 -78h-7zM75 -38v521l5 6l70 10l5 -4v-539q0 -87 -43.5 -136.5t-118.5 -49.5q-63 0 -116 39l-2 6l32 58l5 1q31 -32 77 -32q33 0 59.5 30t26.5 90z" />
    <glyph glyph-name="Kcommaaccent" unicode="&#x136;" horiz-adv-x="594" 
d="M93 5v660l5 6l74 10l5 -4v-283h47l8 4l208 266l8 5l105 12l4 -5l-238 -288l-29 -29l29 -32l158 -210q31 -42 79 -42q8 0 12 1l4 -5l-11 -68l-6 -5q-6 -1 -18 -1q-75 0 -134 82l-175 237l-8 4h-43v-315l-5 -5h-74zM265 -51l6 4h78l5 -4l-72 -152l-7 -3l-34 7l-5 6z" />
    <glyph glyph-name="kcommaaccent" unicode="&#x137;" horiz-adv-x="475" 
d="M203 -51l6 4h78l5 -4l-72 -152l-7 -3l-34 7l-5 6zM76 5v706l5 6l70 10l5 -4v-409h8l143 171l7 4l105 10l5 -5l-161 -176l-23 -20l21 -24l104 -158q33 -48 73 -48q9 0 14 1l5 -5l-11 -64l-5 -5q-6 -1 -17 -1q-35 0 -64.5 17t-40.5 30.5t-26 36.5l-129 201h-8v-274l-4 -5
h-72z" />
    <glyph glyph-name="kgreenlandic" unicode="&#x138;" horiz-adv-x="477" 
d="M75 5v478l5 6l70 10l5 -4v-221h8l172 211l7 4l98 10l5 -5l-183 -214l-21 -20l21 -24l87 -117q11 -16 32 -32t46 -16q13 0 18 1l5 -5l-11 -64l-5 -5q-6 -1 -21 -1q-78 0 -136 84l-114 158h-8v-234l-4 -5h-72z" />
    <glyph glyph-name="Lacute" unicode="&#x139;" horiz-adv-x="474" 
d="M139 733l-50 20l-1 6l60 102l7 4h108l5 -4l-123 -128h-6zM104 5v660l5 6l74 10l5 -4v-597h288l4 -5l-18 -70l-6 -5h-347z" />
    <glyph glyph-name="lacute" unicode="&#x13a;" horiz-adv-x="247" 
d="M114 733l-50 20l-1 6l60 102l7 4h108l5 -4l-123 -128h-6zM74 110v555l5 6l70 10l5 -4v-562q0 -26 14 -35.5t31 -9.5h4l4 -5l-11 -63l-5 -5h-8q-15 0 -29.5 3.5t-34.5 13.5t-32.5 34.5t-12.5 61.5z" />
    <glyph glyph-name="Lcommaaccent" unicode="&#x13b;" horiz-adv-x="474" 
d="M93 5v660l5 6l74 10l5 -4v-597h288l4 -5l-18 -70l-6 -5h-347zM241 -51l6 4h78l5 -4l-72 -152l-7 -3l-34 7l-5 6z" />
    <glyph glyph-name="lcommaaccent" unicode="&#x13c;" horiz-adv-x="247" 
d="M74 110v601l5 6l70 10l5 -4v-608q0 -26 14 -35.5t31 -9.5h4l4 -5l-11 -63l-5 -5h-8q-15 0 -29.5 3.5t-34.5 13.5t-32.5 34.5t-12.5 61.5zM101 -51l6 4h78l5 -4l-72 -152l-7 -3l-34 7l-5 6z" />
    <glyph glyph-name="Lcaron" unicode="&#x13d;" horiz-adv-x="474" 
d="M267 533l-5 6l29 142l6 4h78l5 -4l-72 -152l-7 -3zM93 5v660l5 6l74 10l5 -4v-597h288l4 -5l-18 -70l-6 -5h-347z" />
    <glyph glyph-name="lcaron" unicode="&#x13e;" horiz-adv-x="277" 
d="M74 110v601l5 6l70 10l5 -4v-608q0 -26 14 -35.5t31 -9.5h4l4 -5l-11 -63l-5 -5h-8q-15 0 -29.5 3.5t-34.5 13.5t-32.5 34.5t-12.5 61.5zM220 567l-5 6l29 142l6 4h78l5 -4l-72 -152l-7 -3z" />
    <glyph glyph-name="Ldot" unicode="&#x13f;" horiz-adv-x="474" 
d="M93 5v660l5 6l74 10l5 -4v-597h288l4 -5l-18 -70l-6 -5h-347zM318 307v94l5 5h92l5 -5v-94l-5 -5h-92z" />
    <glyph glyph-name="ldot" unicode="&#x140;" horiz-adv-x="411" 
d="M74 110v601l5 6l70 10l5 -4v-608q0 -26 14 -35.5t31 -9.5h4l4 -5l-11 -63l-5 -5h-8q-15 0 -29.5 3.5t-34.5 13.5t-32.5 34.5t-12.5 61.5zM283 302l-5 5v94l5 5h92l5 -5v-94l-5 -5h-92z" />
    <glyph glyph-name="Lslash" unicode="&#x141;" horiz-adv-x="487" 
d="M106 5v364l-34 -9l-6 3l-17 61l3 6l54 14v221l5 6l74 10l5 -4v-210l109 29l5 -3v-64l-4 -7l-110 -30v-312h288l4 -5l-18 -70l-6 -5h-347z" />
    <glyph glyph-name="lslash" unicode="&#x142;" horiz-adv-x="289" 
d="M95 110v269l-43 -11l-6 3l-17 61l3 6l63 17v256l5 6l70 10l5 -4v-247l70 19l5 -3v-64l-4 -7l-71 -20v-286q0 -26 14 -35.5t31 -9.5h4l4 -5l-11 -63l-5 -5h-8q-15 0 -29.5 3.5t-34.5 13.5t-32.5 34.5t-12.5 61.5z" />
    <glyph glyph-name="Nacute" unicode="&#x143;" horiz-adv-x="707" 
d="M305 753l-1 6l60 102l7 4h108l5 -4l-123 -128h-6zM93 5v660l5 6l74 10l7 -4l324 -488l26 -48v524l5 6l74 10l5 -4v-672l-5 -5h-71l-8 5l-326 492l-26 48v-540l-5 -5h-74z" />
    <glyph glyph-name="nacute" unicode="&#x144;" horiz-adv-x="525" 
d="M218 589l-1 6l60 102l7 4h108l5 -4l-123 -128h-6zM79 5v385l-25 94l5 6l61 9l6 -4l28 -70q3 8 9.5 18.5t21.5 26t43.5 26t65.5 10.5q69 0 114 -45.5t45 -127.5v-328l-5 -5h-70l-5 5v312q0 60 -32 88.5t-80 28.5q-15 0 -102 -23v-406l-5 -5h-70z" />
    <glyph glyph-name="Ncommaaccent" unicode="&#x145;" horiz-adv-x="707" 
d="M93 5v660l5 6l74 10l7 -4l324 -488l26 -48v524l5 6l74 10l5 -4v-672l-5 -5h-71l-8 5l-326 492l-26 48v-540l-5 -5h-74zM316 -51l6 4h78l5 -4l-72 -152l-7 -3l-34 7l-5 6z" />
    <glyph glyph-name="ncommaaccent" unicode="&#x146;" horiz-adv-x="525" 
d="M79 5v385l-25 94l5 6l61 9l6 -4l28 -70q3 8 9.5 18.5t21.5 26t43.5 26t65.5 10.5q69 0 114 -45.5t45 -127.5v-328l-5 -5h-70l-5 5v312q0 60 -32 88.5t-80 28.5q-15 0 -102 -23v-406l-5 -5h-70zM224 -51l6 4h78l5 -4l-72 -152l-7 -3l-34 7l-5 6z" />
    <glyph glyph-name="Ncaron" unicode="&#x147;" horiz-adv-x="707" 
d="M331 740l-9 5l-92 102l2 7l55 18h7l67 -78l67 78h7l55 -18l2 -7l-92 -102l-9 -5h-60zM93 5v660l5 6l74 10l7 -4l324 -488l26 -48v524l5 6l74 10l5 -4v-672l-5 -5h-71l-8 5l-326 492l-26 48v-540l-5 -5h-74z" />
    <glyph glyph-name="ncaron" unicode="&#x148;" horiz-adv-x="525" 
d="M244 576l-9 5l-92 102l2 7l55 18h7l67 -78l67 78h7l55 -18l2 -7l-92 -102l-9 -5h-60zM79 5v385l-25 94l5 6l61 9l6 -4l28 -70q3 8 9.5 18.5t21.5 26t43.5 26t65.5 10.5q69 0 114 -45.5t45 -127.5v-328l-5 -5h-70l-5 5v312q0 60 -32 88.5t-80 28.5q-15 0 -102 -23v-406
l-5 -5h-70z" />
    <glyph glyph-name="napostrophe" unicode="&#x149;" horiz-adv-x="525" 
d="M76 560l-34 7l-5 6l29 142l6 4h78l5 -4l-72 -152zM79 5v385l-25 94l5 6l61 9l6 -4l28 -70q3 8 9.5 18.5t21.5 26t43.5 26t65.5 10.5q69 0 114 -45.5t45 -127.5v-328l-5 -5h-70l-5 5v312q0 60 -32 88.5t-80 28.5q-15 0 -102 -23v-406l-5 -5h-70z" />
    <glyph glyph-name="Eng" unicode="&#x14a;" horiz-adv-x="707" 
d="M93 5v660l5 6l74 10l7 -4l314 -473l36 -68v529l5 6l74 10l5 -4v-717q0 -69 -31 -116t-83 -63q-22 -7 -52 -7l-5 4l-12 64l4 4q25 0 39 7q60 29 60 113v33l-330 498l-26 48v-540l-5 -5h-74z" />
    <glyph glyph-name="eng" unicode="&#x14b;" horiz-adv-x="525" 
d="M79 5v385l-25 94l5 6l61 9l6 -4l28 -70q3 8 9.5 18.5t21.5 26t43.5 26t65.5 10.5q69 0 114 -45.5t45 -127.5v-339q0 -70 -29 -116.5t-81 -62.5q-22 -7 -52 -7l-5 4l-12 64l4 4q25 0 39 7q56 27 56 113v317q0 60 -32 88.5t-80 28.5q-15 0 -102 -23v-406l-5 -5h-70z" />
    <glyph glyph-name="Omacron" unicode="&#x14c;" horiz-adv-x="668" 
d="M226 772l-5 5v58l5 5h224l4 -5l-12 -58l-6 -5h-210zM71 233v204q0 119 71.5 183.5t191.5 64.5t191.5 -64.5t71.5 -183.5v-204q0 -118 -71 -181.5t-192 -63.5t-192 63.5t-71 181.5zM157 242q0 -86 48.5 -130t128.5 -44t128.5 44t48.5 130v188q0 84 -49 129.5t-128 45.5
t-128 -45.5t-49 -129.5v-188z" />
    <glyph glyph-name="omacron" unicode="&#x14d;" horiz-adv-x="502" 
d="M144 608l-5 5v58l5 5h224l4 -5l-12 -58l-6 -5h-210zM59 161v172q0 82 53.5 127.5t138.5 45.5t138.5 -45.5t53.5 -127.5v-172q0 -82 -53.5 -127.5t-138.5 -45.5t-138.5 45.5t-53.5 127.5zM139 178q0 -58 29 -88t83 -30q53 0 82.5 30.5t29.5 87.5v139q0 57 -29.5 87
t-82.5 30q-54 0 -83 -30t-29 -87v-139z" />
    <glyph glyph-name="Obreve" unicode="&#x14e;" horiz-adv-x="668" 
d="M334 733q-50 0 -84.5 29.5t-34.5 76.5q0 7 2 21l6 5h48l5 -5v-9q0 -26 14.5 -42t43.5 -16t43.5 16t14.5 42v9l5 5h48l6 -5q2 -14 2 -21q0 -47 -34.5 -76.5t-84.5 -29.5zM71 233v204q0 119 71.5 183.5t191.5 64.5t191.5 -64.5t71.5 -183.5v-204q0 -118 -71 -181.5
t-192 -63.5t-192 63.5t-71 181.5zM157 242q0 -86 48.5 -130t128.5 -44t128.5 44t48.5 130v188q0 84 -49 129.5t-128 45.5t-128 -45.5t-49 -129.5v-188z" />
    <glyph glyph-name="obreve" unicode="&#x14f;" horiz-adv-x="502" 
d="M254 569q-50 0 -84.5 29.5t-34.5 76.5q0 7 2 21l6 5h48l5 -5v-9q0 -26 14.5 -42t43.5 -16t43.5 16t14.5 42v9l5 5h48l6 -5q2 -14 2 -21q0 -47 -34.5 -76.5t-84.5 -29.5zM59 161v172q0 82 53.5 127.5t138.5 45.5t138.5 -45.5t53.5 -127.5v-172q0 -82 -53.5 -127.5
t-138.5 -45.5t-138.5 45.5t-53.5 127.5zM139 178q0 -58 29 -88t83 -30q53 0 82.5 30.5t29.5 87.5v139q0 57 -29.5 87t-82.5 30q-54 0 -83 -30t-29 -87v-139z" />
    <glyph glyph-name="Ohungarumlaut" unicode="&#x150;" horiz-adv-x="668" 
d="M334 750l-1 6l61 105l7 4h101l5 -4l-123 -128h-6zM261 737l-48 18l-1 6l51 100l7 4h65l5 -4l-72 -124h-7zM71 233v204q0 119 71.5 183.5t191.5 64.5t191.5 -64.5t71.5 -183.5v-204q0 -118 -71 -181.5t-192 -63.5t-192 63.5t-71 181.5zM157 242q0 -86 48.5 -130t128.5 -44
t128.5 44t48.5 130v188q0 84 -49 129.5t-128 45.5t-128 -45.5t-49 -129.5v-188z" />
    <glyph glyph-name="ohungarumlaut" unicode="&#x151;" horiz-adv-x="502" 
d="M252 586l-1 6l61 105l7 4h101l5 -4l-123 -128h-6zM179 573l-48 18l-1 6l51 100l7 4h65l5 -4l-72 -124h-7zM59 161v172q0 82 53.5 127.5t138.5 45.5t138.5 -45.5t53.5 -127.5v-172q0 -82 -53.5 -127.5t-138.5 -45.5t-138.5 45.5t-53.5 127.5zM139 178q0 -58 29 -88t83 -30
q53 0 82.5 30.5t29.5 87.5v139q0 57 -29.5 87t-82.5 30q-54 0 -83 -30t-29 -87v-139z" />
    <glyph glyph-name="OE" unicode="&#x152;" horiz-adv-x="933" 
d="M71 233v204q0 119 71 183.5t188 64.5q114 0 183 -69v54l5 5h347l5 -5v-70l-5 -5h-268v-200h233l4 -5l-18 -70l-6 -5h-213v-235h269l4 -5l-10 -70l-6 -5h-336l-5 5v50q-69 -67 -183 -67q-117 0 -188 63.5t-71 181.5zM157 242q0 -86 49 -130t129 -44q178 0 178 186v174
q0 91 -49 134t-129 43q-79 0 -128.5 -45.5t-49.5 -129.5v-188z" />
    <glyph glyph-name="oe" unicode="&#x153;" horiz-adv-x="781" 
d="M59 161v172q0 82 53.5 127.5t138.5 45.5q102 0 152 -69q49 69 147 69q88 0 129.5 -43.5t41.5 -104.5q0 -74 -44 -110.5t-117 -36.5q-98 0 -122 56l5 -37v-52q0 -57 30 -87.5t82 -30.5q78 0 109 53l7 2l60 -21l3 -6q-18 -48 -64.5 -74t-110.5 -26q-107 0 -158 67
q-48 -67 -150 -67q-85 0 -138.5 45.5t-53.5 127.5zM139 178q0 -58 29 -88t83 -30q53 0 82.5 30.5t29.5 87.5v139q0 57 -29.5 87t-82.5 30q-54 0 -83 -30t-29 -87v-139zM443 300q21 -16 105 -16q93 0 93 78q0 30 -23 50.5t-71 20.5q-104 0 -104 -115v-18z" />
    <glyph glyph-name="Racute" unicode="&#x154;" horiz-adv-x="583" 
d="M266 733l-50 20l-1 6l60 102l7 4h108l5 -4l-123 -128h-6zM93 5v665l5 5h178q90 0 147 -35q83 -53 83 -164q0 -38 -11 -69.5t-28 -51t-38 -34.5t-41.5 -22t-37.5 -11.5t-28 -5.5l-11 -1l22 -22l117 -141q36 -42 80 -42q2 0 5.5 0.5t5.5 0.5l4 -5l-11 -68l-6 -5
q-14 -2 -21 -2q-68 0 -133 83l-156 194l-7 4h-34v-273l-5 -5h-74zM177 355h98q63 0 105 28.5t42 92.5q0 63 -42.5 92.5t-104.5 29.5h-98v-243z" />
    <glyph glyph-name="racute" unicode="&#x155;" horiz-adv-x="309" 
d="M152 569l-50 20l-1 6l60 102l7 4h108l5 -4l-123 -128h-6zM79 5v385l-25 94l5 6l61 9l6 -4l28 -70q3 8 9.5 18.5t21 26t42.5 26t64 10.5l5 -6l-15 -84l-7 -5q-18 9 -52 9q-32 0 -63 -9v-406l-5 -5h-70z" />
    <glyph glyph-name="Rcommaaccent" unicode="&#x156;" horiz-adv-x="583" 
d="M93 5v665l5 5h178q90 0 147 -35q83 -53 83 -164q0 -38 -11 -69.5t-28 -51t-38 -34.5t-41.5 -22t-37.5 -11.5t-28 -5.5l-11 -1l22 -22l117 -141q36 -42 80 -42q2 0 5.5 0.5t5.5 0.5l4 -5l-11 -68l-6 -5q-14 -2 -21 -2q-68 0 -133 83l-156 194l-7 4h-34v-273l-5 -5h-74z
M177 355h98q63 0 105 28.5t42 92.5q0 63 -42.5 92.5t-104.5 29.5h-98v-243zM256 -51l6 4h78l5 -4l-72 -152l-7 -3l-34 7l-5 6z" />
    <glyph glyph-name="rcommaaccent" unicode="&#x157;" horiz-adv-x="309" 
d="M79 5v385l-25 94l5 6l61 9l6 -4l28 -70q3 8 9.5 18.5t21 26t42.5 26t64 10.5l5 -6l-15 -84l-7 -5q-18 9 -52 9q-32 0 -63 -9v-406l-5 -5h-70zM76 -51l6 4h78l5 -4l-72 -152l-7 -3l-34 7l-5 6z" />
    <glyph glyph-name="Rcaron" unicode="&#x158;" horiz-adv-x="583" 
d="M251 740l-9 5l-92 102l2 7l55 18h7l67 -78l67 78h7l55 -18l2 -7l-92 -102l-9 -5h-60zM93 5v665l5 5h178q90 0 147 -35q83 -53 83 -164q0 -38 -11 -69.5t-28 -51t-38 -34.5t-41.5 -22t-37.5 -11.5t-28 -5.5l-11 -1l22 -22l117 -141q36 -42 80 -42q2 0 5.5 0.5t5.5 0.5
l4 -5l-11 -68l-6 -5q-14 -2 -21 -2q-68 0 -133 83l-156 194l-7 4h-34v-273l-5 -5h-74zM177 355h98q63 0 105 28.5t42 92.5q0 63 -42.5 92.5t-104.5 29.5h-98v-243z" />
    <glyph glyph-name="rcaron" unicode="&#x159;" horiz-adv-x="309" 
d="M145 576l-9 5l-92 102l2 7l55 18h7l67 -78l67 78h7l55 -18l2 -7l-92 -102l-9 -5h-60zM79 5v385l-25 94l5 6l61 9l6 -4l28 -70q3 8 9.5 18.5t21 26t42.5 26t64 10.5l5 -6l-15 -84l-7 -5q-18 9 -52 9q-32 0 -63 -9v-406l-5 -5h-70z" />
    <glyph glyph-name="Sacute" unicode="&#x15a;" horiz-adv-x="508" 
d="M257 733l-50 20l-1 6l60 102l7 4h108l5 -4l-123 -128h-6zM50 48l-2 7l41 56l9 1q21 -18 62 -31t75 -13q58 0 94.5 28t36.5 87q0 44 -31 72t-74.5 44t-87.5 35t-75 58.5t-31 100.5q0 87 58 139.5t142 52.5q45 0 86.5 -11t60 -21.5t25.5 -17.5l1 -7l-38 -58l-8 -1
q-48 36 -123 36q-58 0 -88 -30t-30 -79q0 -41 31 -67t74.5 -42t87.5 -35.5t75 -61.5t31 -106q0 -54 -19.5 -93.5t-53 -61t-70 -31.5t-77.5 -10q-40 0 -93 16t-89 44z" />
    <glyph glyph-name="sacute" unicode="&#x15b;" horiz-adv-x="423" 
d="M205 569l-50 20l-1 6l60 102l7 4h108l5 -4l-123 -128h-6zM48 34l-1 6l38 53l8 1q15 -13 47.5 -23.5t56.5 -10.5q100 0 100 78q0 28 -25.5 45t-62 27.5t-72.5 24.5t-61.5 45t-25.5 79q0 72 53 109.5t127 37.5q73 0 129 -39l2 -7l-39 -53h-7q-40 27 -83 27q-45 0 -72.5 -20
t-27.5 -55q0 -30 25.5 -48t61.5 -28t72.5 -22.5t62 -43t25.5 -79.5q0 -150 -179 -150q-92 0 -152 46z" />
    <glyph glyph-name="Scircumflex" unicode="&#x15c;" horiz-adv-x="508" 
d="M188 733l-55 18l-2 7l92 102l9 5h60l9 -5l92 -102l-2 -7l-55 -18h-7l-67 78l-67 -78h-7zM50 48l-2 7l41 56l9 1q21 -18 62 -31t75 -13q58 0 94.5 28t36.5 87q0 44 -31 72t-74.5 44t-87.5 35t-75 58.5t-31 100.5q0 87 58 139.5t142 52.5q45 0 86.5 -11t60 -21.5
t25.5 -17.5l1 -7l-38 -58l-8 -1q-48 36 -123 36q-58 0 -88 -30t-30 -79q0 -41 31 -67t74.5 -42t87.5 -35.5t75 -61.5t31 -106q0 -54 -19.5 -93.5t-53 -61t-70 -31.5t-77.5 -10q-40 0 -93 16t-89 44z" />
    <glyph glyph-name="scircumflex" unicode="&#x15d;" horiz-adv-x="423" 
d="M136 569l-55 18l-2 7l92 102l9 5h60l9 -5l92 -102l-2 -7l-55 -18h-7l-67 78l-67 -78h-7zM48 34l-1 6l38 53l8 1q15 -13 47.5 -23.5t56.5 -10.5q100 0 100 78q0 28 -25.5 45t-62 27.5t-72.5 24.5t-61.5 45t-25.5 79q0 72 53 109.5t127 37.5q73 0 129 -39l2 -7l-39 -53h-7
q-40 27 -83 27q-45 0 -72.5 -20t-27.5 -55q0 -30 25.5 -48t61.5 -28t72.5 -22.5t62 -43t25.5 -79.5q0 -150 -179 -150q-92 0 -152 46z" />
    <glyph glyph-name="Scedilla" unicode="&#x15e;" horiz-adv-x="508" 
d="M50 48l-2 7l41 56l9 1q21 -18 62 -31t75 -13q58 0 94.5 28t36.5 87q0 44 -31 72t-74.5 44t-87.5 35t-75 58.5t-31 100.5q0 87 58 139.5t142 52.5q45 0 86.5 -11t60 -21.5t25.5 -17.5l1 -7l-38 -58l-8 -1q-48 36 -123 36q-58 0 -88 -30t-30 -79q0 -41 31 -67t74.5 -42
t87.5 -35.5t75 -61.5t31 -106q0 -91 -53 -137.5t-131 -55.5q37 -37 37 -74q0 -43 -29 -68t-73 -25q-57 0 -88 32l-2 7l13 34l7 3q22 -16 44 -16q68 0 68 67q0 13 -11 37h-2q-40 0 -93 16t-89 44z" />
    <glyph glyph-name="scedilla" unicode="&#x15f;" horiz-adv-x="423" 
d="M48 34l-1 6l38 53l8 1q15 -13 47.5 -23.5t56.5 -10.5q100 0 100 78q0 28 -25.5 45t-62 27.5t-72.5 24.5t-61.5 45t-25.5 79q0 72 53 109.5t127 37.5q73 0 129 -39l2 -7l-39 -53h-7q-40 27 -83 27q-45 0 -72.5 -20t-27.5 -55q0 -30 25.5 -48t61.5 -28t72.5 -22.5t62 -43
t25.5 -79.5q0 -131 -137 -147q37 -37 37 -74q0 -43 -29 -68t-73 -25q-57 0 -88 32l-2 7l13 34l7 3q22 -16 44 -16q68 0 68 67q0 13 -11 37h-8q-92 0 -152 46z" />
    <glyph glyph-name="Scaron" unicode="&#x160;" horiz-adv-x="508" 
d="M228 740l-9 5l-92 102l2 7l55 18h7l67 -78l67 78h7l55 -18l2 -7l-92 -102l-9 -5h-60zM50 48l-2 7l41 56l9 1q21 -18 62 -31t75 -13q58 0 94.5 28t36.5 87q0 44 -31 72t-74.5 44t-87.5 35t-75 58.5t-31 100.5q0 87 58 139.5t142 52.5q45 0 86.5 -11t60 -21.5t25.5 -17.5
l1 -7l-38 -58l-8 -1q-48 36 -123 36q-58 0 -88 -30t-30 -79q0 -41 31 -67t74.5 -42t87.5 -35.5t75 -61.5t31 -106q0 -54 -19.5 -93.5t-53 -61t-70 -31.5t-77.5 -10q-40 0 -93 16t-89 44z" />
    <glyph glyph-name="scaron" unicode="&#x161;" horiz-adv-x="423" 
d="M181 576l-9 5l-92 102l2 7l55 18h7l67 -78l67 78h7l55 -18l2 -7l-92 -102l-9 -5h-60zM48 34l-1 6l38 53l8 1q15 -13 47.5 -23.5t56.5 -10.5q100 0 100 78q0 28 -25.5 45t-62 27.5t-72.5 24.5t-61.5 45t-25.5 79q0 72 53 109.5t127 37.5q73 0 129 -39l2 -7l-39 -53h-7
q-40 27 -83 27q-45 0 -72.5 -20t-27.5 -55q0 -30 25.5 -48t61.5 -28t72.5 -22.5t62 -43t25.5 -79.5q0 -150 -179 -150q-92 0 -152 46z" />
    <glyph glyph-name="Tcommaaccent" unicode="&#x162;" horiz-adv-x="497" 
d="M130 -103l7 3q22 -16 44 -16q68 0 68 67q0 8 -4.5 20t-8.5 21l-4 8h-20l-5 5v590h-186l-5 5v70l5 5h469l4 -5l-18 -70l-6 -5h-179v-590l-5 -5h-24q5 -4 13 -11.5t21 -29.5t13 -42q0 -43 -29 -68t-73 -25q-57 0 -88 32l-2 7z" />
    <glyph glyph-name="tcommaaccent" unicode="&#x163;" horiz-adv-x="379" 
d="M108 -103l7 3q22 -16 44 -16q68 0 68 67q0 12 -13 41q-57 11 -91 58t-34 125v247h-54l-5 5v62l5 5h58l9 101l5 6l57 8l5 -4v-111h166l5 -5l-19 -62l-7 -5h-145v-241q0 -52 24 -85.5t64 -33.5q17 0 35.5 8t28.5 16l10 7l7 -1l31 -57l-2 -7q-54 -39 -114 -40q34 -34 34 -71
q0 -43 -29 -68t-73 -25q-57 0 -88 32l-2 7z" />
    <glyph glyph-name="Tcaron" unicode="&#x164;" horiz-adv-x="497" 
d="M217 740l-9 5l-92 102l2 7l55 18h7l67 -78l67 78h7l55 -18l2 -7l-92 -102l-9 -5h-60zM207 5v590h-186l-5 5v70l5 5h469l4 -5l-18 -70l-6 -5h-179v-590l-5 -5h-74z" />
    <glyph glyph-name="tcaron" unicode="&#x165;" horiz-adv-x="379" 
d="M240 567l-5 6l29 142l6 4h78l5 -4l-72 -152l-7 -3zM89 175v247h-54l-5 5v62l5 5h58l9 101l5 6l57 8l5 -4v-111h166l5 -5l-19 -62l-7 -5h-145v-241q0 -52 24 -85.5t64 -33.5q17 0 35.5 8t28.5 16l10 7l7 -1l31 -57l-2 -7q-57 -40 -117 -40q-71 0 -116 48.5t-45 138.5z" />
    <glyph glyph-name="Tbar" unicode="&#x166;" horiz-adv-x="536" 
d="M226 5v333h-144l-5 5v63l5 5h144v184h-186l-5 5v70l5 5h469l4 -5l-18 -70l-6 -5h-179v-184h156l5 -5l-12 -63l-7 -5h-142v-333l-5 -5h-74z" />
    <glyph glyph-name="tbar" unicode="&#x167;" horiz-adv-x="401" 
d="M102 175v92h-49l-5 5v58l5 5h49v87h-54l-5 5v62l5 5h58l9 101l5 6l57 8l5 -4v-111h166l5 -5l-19 -62l-7 -5h-145v-87h151l5 -5l-14 -58l-7 -5h-135v-86q0 -52 24 -85.5t64 -33.5q17 0 35.5 8t28.5 16l10 7l7 -1l31 -57l-2 -7q-57 -40 -117 -40q-71 0 -116 48.5t-45 138.5
z" />
    <glyph glyph-name="Utilde" unicode="&#x168;" horiz-adv-x="695" 
d="M241 756l-36 27v7q21 35 42 50.5t53 15.5q30 0 57 -23t41 -23q15 0 48 33l7 2l36 -27v-7q-37 -66 -97 -66q-28 0 -56 22.5t-41 22.5q-18 0 -47 -32zM86 233v432l5 6l74 10l5 -4v-435q0 -86 49 -130t128 -44q82 0 129.5 44t47.5 130v423l5 6l74 10l5 -4v-444
q0 -119 -69 -182t-192 -63q-122 0 -191.5 63t-69.5 182z" />
    <glyph glyph-name="utilde" unicode="&#x169;" horiz-adv-x="518" 
d="M159 592l-36 27v7q21 35 42 50.5t53 15.5q30 0 57 -23t41 -23q15 0 48 33l7 2l36 -27v-7q-37 -66 -97 -66q-28 0 -56 22.5t-41 22.5q-18 0 -47 -32zM71 164v319l5 6l70 10l5 -4v-314q0 -62 29.5 -91.5t76.5 -29.5q12 0 37.5 7t45.5 14l19 7v395l5 6l70 10l5 -4v-397
l25 -88l-5 -6l-61 -9l-6 4l-29 72q-11 -34 -44.5 -58.5t-94.5 -24.5q-69 0 -111 46t-42 130z" />
    <glyph glyph-name="Umacron" unicode="&#x16a;" horiz-adv-x="695" 
d="M242 772l-5 5v58l5 5h224l4 -5l-12 -58l-6 -5h-210zM86 233v432l5 6l74 10l5 -4v-435q0 -86 49 -130t128 -44q82 0 129.5 44t47.5 130v423l5 6l74 10l5 -4v-444q0 -119 -69 -182t-192 -63q-122 0 -191.5 63t-69.5 182z" />
    <glyph glyph-name="umacron" unicode="&#x16b;" horiz-adv-x="518" 
d="M155 608l-5 5v58l5 5h224l4 -5l-12 -58l-6 -5h-210zM71 164v319l5 6l70 10l5 -4v-314q0 -62 29.5 -91.5t76.5 -29.5q12 0 37.5 7t45.5 14l19 7v395l5 6l70 10l5 -4v-397l25 -88l-5 -6l-61 -9l-6 4l-29 72q-11 -34 -44.5 -58.5t-94.5 -24.5q-69 0 -111 46t-42 130z" />
    <glyph glyph-name="Ubreve" unicode="&#x16c;" horiz-adv-x="695" 
d="M347 733q-50 0 -84.5 29.5t-34.5 76.5q0 7 2 21l6 5h48l5 -5v-9q0 -26 14.5 -42t43.5 -16t43.5 16t14.5 42v9l5 5h48l6 -5q2 -14 2 -21q0 -47 -34.5 -76.5t-84.5 -29.5zM86 233v432l5 6l74 10l5 -4v-435q0 -86 49 -130t128 -44q82 0 129.5 44t47.5 130v423l5 6l74 10
l5 -4v-444q0 -119 -69 -182t-192 -63q-122 0 -191.5 63t-69.5 182z" />
    <glyph glyph-name="ubreve" unicode="&#x16d;" horiz-adv-x="518" 
d="M265 569q-50 0 -84.5 29.5t-34.5 76.5q0 7 2 21l6 5h48l5 -5v-9q0 -26 14.5 -42t43.5 -16t43.5 16t14.5 42v9l5 5h48l6 -5q2 -14 2 -21q0 -47 -34.5 -76.5t-84.5 -29.5zM71 164v319l5 6l70 10l5 -4v-314q0 -62 29.5 -91.5t76.5 -29.5q12 0 37.5 7t45.5 14l19 7v395l5 6
l70 10l5 -4v-397l25 -88l-5 -6l-61 -9l-6 4l-29 72q-11 -34 -44.5 -58.5t-94.5 -24.5q-69 0 -111 46t-42 130z" />
    <glyph glyph-name="Uring" unicode="&#x16e;" horiz-adv-x="695" 
d="M347 733q-33 0 -57 17.5t-24 48.5v13q0 31 24 48t57 17t57 -17t24 -48v-13q0 -31 -24 -48.5t-57 -17.5zM347 772q37 0 37 33t-37 33t-37 -33t37 -33zM86 233v432l5 6l74 10l5 -4v-435q0 -86 49 -130t128 -44q82 0 129.5 44t47.5 130v423l5 6l74 10l5 -4v-444
q0 -119 -69 -182t-192 -63q-122 0 -191.5 63t-69.5 182z" />
    <glyph glyph-name="uring" unicode="&#x16f;" horiz-adv-x="518" 
d="M265 569q-33 0 -57 17.5t-24 48.5v13q0 31 24 48t57 17t57 -17t24 -48v-13q0 -31 -24 -48.5t-57 -17.5zM265 608q37 0 37 33t-37 33t-37 -33t37 -33zM71 164v319l5 6l70 10l5 -4v-314q0 -62 29.5 -91.5t76.5 -29.5q12 0 37.5 7t45.5 14l19 7v395l5 6l70 10l5 -4v-397
l25 -88l-5 -6l-61 -9l-6 4l-29 72q-11 -34 -44.5 -58.5t-94.5 -24.5q-69 0 -111 46t-42 130z" />
    <glyph glyph-name="Uhungarumlaut" unicode="&#x170;" horiz-adv-x="695" 
d="M350 750l-1 6l61 105l7 4h101l5 -4l-123 -128h-6zM277 737l-48 18l-1 6l51 100l7 4h65l5 -4l-72 -124h-7zM86 233v432l5 6l74 10l5 -4v-435q0 -86 49 -130t128 -44q82 0 129.5 44t47.5 130v423l5 6l74 10l5 -4v-444q0 -119 -69 -182t-192 -63q-122 0 -191.5 63t-69.5 182
z" />
    <glyph glyph-name="uhungarumlaut" unicode="&#x171;" horiz-adv-x="518" 
d="M263 586l-1 6l61 105l7 4h101l5 -4l-123 -128h-6zM190 573l-48 18l-1 6l51 100l7 4h65l5 -4l-72 -124h-7zM71 164v319l5 6l70 10l5 -4v-314q0 -62 29.5 -91.5t76.5 -29.5q12 0 37.5 7t45.5 14l19 7v395l5 6l70 10l5 -4v-397l25 -88l-5 -6l-61 -9l-6 4l-29 72
q-11 -34 -44.5 -58.5t-94.5 -24.5q-69 0 -111 46t-42 130z" />
    <glyph glyph-name="Uogonek" unicode="&#x172;" horiz-adv-x="696" 
d="M86 233v432l5 6l74 10l5 -4v-435q0 -86 49 -130t128 -44q82 0 129.5 44t47.5 130v423l5 6l74 10l5 -4v-444q0 -62 -21 -108t-50.5 -72.5t-59 -49t-50.5 -49.5t-21 -61q0 -26 14.5 -40t53.5 -16l5 -7l-11 -44l-9 -5q-58 0 -97.5 26.5t-39.5 70.5q0 62 70 113
q-22 -3 -45 -3q-122 0 -191.5 63t-69.5 182z" />
    <glyph glyph-name="uogonek" unicode="&#x173;" horiz-adv-x="518" 
d="M71 164v319l5 6l70 10l5 -4v-314q0 -62 29.5 -91.5t76.5 -29.5q12 0 37.5 7t45.5 14l19 7v395l5 6l70 10l5 -4v-397l25 -86l-4 -8q-76 -71 -76 -111q0 -26 16 -40t55 -16l5 -7l-11 -44l-9 -5q-58 0 -97.5 26.5t-39.5 70.5q0 71 88 124l-28 69q-11 -34 -44.5 -58.5
t-94.5 -24.5q-69 0 -111 46t-42 130z" />
    <glyph glyph-name="Wcircumflex" unicode="&#x174;" horiz-adv-x="870" 
d="M307 751l-2 7l92 102l9 5h60l9 -5l92 -102l-2 -7l-55 -18h-7l-67 78l-67 -78h-7zM236 13l-222 651l5 6l79 11l6 -4l155 -499l20 -74l15 74l104 371v116l5 6l74 10l5 -4v-140l98 -359l15 -74l18 74l143 485l5 6l88 12l6 -4l-225 -679l-7 -5l-72 14l-6 6l-94 338l-14 67
l-14 -67l-100 -353l-7 -5l-74 14z" />
    <glyph glyph-name="wcircumflex" unicode="&#x175;" horiz-adv-x="730" 
d="M236 587l-2 7l92 102l9 5h60l9 -5l92 -102l-2 -7l-55 -18h-7l-67 78l-67 -78h-7zM191 12l-177 471l5 6l75 10l5 -4l121 -359l14 -53l14 53l81 244v103l5 6l69 10l5 -4v-128l75 -231l14 -53l14 53l116 348l6 5l81 10l3 -5l-182 -495l-7 -6l-68 14l-6 6l-77 234l-12 49
l-13 -49l-81 -248l-7 -6l-67 13z" />
    <glyph glyph-name="Ycircumflex" unicode="&#x176;" horiz-adv-x="514" 
d="M182 733l-55 18l-2 7l92 102l9 5h60l9 -5l92 -102l-2 -7l-55 -18h-7l-67 78l-67 -78h-7zM215 5v291l-203 367l5 7l84 11l6 -4l134 -266l16 -39l17 39l127 252l5 6l91 12l6 -4l-204 -381v-291l-5 -5h-74z" />
    <glyph glyph-name="ycircumflex" unicode="&#x177;" horiz-adv-x="465" 
d="M160 569l-55 18l-2 7l92 102l9 5h60l9 -5l92 -102l-2 -7l-55 -18h-7l-67 78l-67 -78h-7zM4 -128q32 -31 78 -31q60 0 93 91l31 84l-11 4l-8 7l-172 456l5 6l78 10l5 -4l117 -360l15 -53l12 44l114 358l6 5l80 10l3 -5l-209 -595q-45 -130 -157 -130q-62 0 -115 39l-2 8
l30 54z" />
    <glyph glyph-name="Ydieresis" unicode="&#x178;" horiz-adv-x="514" 
d="M289 774l-5 5v78l5 5h73l5 -5v-78l-5 -5h-73zM152 774l-5 5v78l5 5h73l5 -5v-78l-5 -5h-73zM215 5v291l-203 367l5 7l84 11l6 -4l134 -266l16 -39l17 39l127 252l5 6l91 12l6 -4l-204 -381v-291l-5 -5h-74z" />
    <glyph glyph-name="Zacute" unicode="&#x179;" horiz-adv-x="526" 
d="M264 733l-50 20l-1 6l60 102l7 4h108l5 -4l-123 -128h-6zM55 5l-10 49l322 541h-306l-4 5l10 70l6 5h397l5 -5v-49l-321 -541h314l5 -5v-70l-5 -5h-407z" />
    <glyph glyph-name="zacute" unicode="&#x17a;" horiz-adv-x="431" 
d="M213 569l-50 20l-1 6l60 102l7 4h108l5 -4l-123 -128h-6zM51 5l-10 45l241 372h-229l-5 5l11 62l7 5h313l5 -5v-47l-244 -370h238l5 -5v-62l-5 -5h-320z" />
    <glyph glyph-name="Zdotaccent" unicode="&#x17b;" horiz-adv-x="526" 
d="M226 772l-5 5v83l5 5h83l5 -5v-83l-5 -5h-83zM55 5l-10 49l322 541h-306l-4 5l10 70l6 5h397l5 -5v-49l-321 -541h314l5 -5v-70l-5 -5h-407z" />
    <glyph glyph-name="zdotaccent" unicode="&#x17c;" horiz-adv-x="431" 
d="M175 608l-5 5v83l5 5h83l5 -5v-83l-5 -5h-83zM51 5l-10 45l241 372h-229l-5 5l11 62l7 5h313l5 -5v-47l-244 -370h238l5 -5v-62l-5 -5h-320z" />
    <glyph glyph-name="Zcaron" unicode="&#x17d;" horiz-adv-x="526" 
d="M240 740l-9 5l-92 102l2 7l55 18h7l67 -78l67 78h7l55 -18l2 -7l-92 -102l-9 -5h-60zM55 5l-10 49l322 541h-306l-4 5l10 70l6 5h397l5 -5v-49l-321 -541h314l5 -5v-70l-5 -5h-407z" />
    <glyph glyph-name="zcaron" unicode="&#x17e;" horiz-adv-x="431" 
d="M189 576l-9 5l-92 102l2 7l55 18h7l67 -78l67 78h7l55 -18l2 -7l-92 -102l-9 -5h-60zM51 5l-10 45l241 372h-229l-5 5l11 62l7 5h313l5 -5v-47l-244 -370h238l5 -5v-62l-5 -5h-320z" />
    <glyph glyph-name="longs" unicode="&#x17f;" horiz-adv-x="257" 
d="M101 -189v611h-65l-5 5v62l5 5h65v105q0 78 53.5 121t127.5 43q54 0 98 -23l1 -7l-38 -55l-7 -2q-24 11 -54 11q-43 0 -72 -21.5t-29 -62.5v-722l-20 -101l-6 -7l-49 29z" />
    <glyph glyph-name="florin" unicode="&#x192;" horiz-adv-x="622" 
d="M46 -40l6 5l63 -9l3 -6q-11 -24 -11 -49q0 -60 65 -60q49 0 58 73l48 403h-98l-5 5v62l5 5h108l25 203q8 64 44 101t94 37q67 0 101.5 -32.5t34.5 -89.5q0 -33 -10 -67l-7 -4l-63 9l-3 7q8 22 8 44q0 27 -14.5 44t-46.5 17q-26 0 -41.5 -21t-18.5 -50l-23 -198h169l4 -5
l-18 -62l-6 -5h-158l-50 -409q-8 -63 -42.5 -101t-93.5 -38q-77 0 -107.5 38t-30.5 87q0 16 2.5 32.5t5.5 25.5z" />
    <glyph glyph-name="Scommaaccent" unicode="&#x218;" horiz-adv-x="508" 
d="M50 48l-2 7l41 56l9 1q21 -18 62 -31t75 -13q58 0 94.5 28t36.5 87q0 44 -31 72t-74.5 44t-87.5 35t-75 58.5t-31 100.5q0 87 58 139.5t142 52.5q45 0 86.5 -11t60 -21.5t25.5 -17.5l1 -7l-38 -58l-8 -1q-48 36 -123 36q-58 0 -88 -30t-30 -79q0 -41 31 -67t74.5 -42
t87.5 -35.5t75 -61.5t31 -106q0 -54 -19.5 -93.5t-53 -61t-70 -31.5t-77.5 -10q-40 0 -93 16t-89 44zM202 -51l6 4h78l5 -4l-72 -152l-7 -3l-34 7l-5 6z" />
    <glyph glyph-name="scommaaccent" unicode="&#x219;" horiz-adv-x="423" 
d="M48 34l-1 6l38 53l8 1q15 -13 47.5 -23.5t56.5 -10.5q100 0 100 78q0 28 -25.5 45t-62 27.5t-72.5 24.5t-61.5 45t-25.5 79q0 72 53 109.5t127 37.5q73 0 129 -39l2 -7l-39 -53h-7q-40 27 -83 27q-45 0 -72.5 -20t-27.5 -55q0 -30 25.5 -48t61.5 -28t72.5 -22.5t62 -43
t25.5 -79.5q0 -150 -179 -150q-92 0 -152 46zM169 -51l6 4h78l5 -4l-72 -152l-7 -3l-34 7l-5 6z" />
    <glyph glyph-name="uni021A" unicode="&#x21a;" horiz-adv-x="497" 
d="M207 5v590h-186l-5 5v70l5 5h469l4 -5l-18 -70l-6 -5h-179v-590l-5 -5h-74zM204 -51l6 4h78l5 -4l-72 -152l-7 -3l-34 7l-5 6z" />
    <glyph glyph-name="uni021B" unicode="&#x21b;" horiz-adv-x="379" 
d="M89 175v247h-54l-5 5v62l5 5h58l9 101l5 6l57 8l5 -4v-111h166l5 -5l-19 -62l-7 -5h-145v-241q0 -52 24 -85.5t64 -33.5q17 0 35.5 8t28.5 16l10 7l7 -1l31 -57l-2 -7q-57 -40 -117 -40q-71 0 -116 48.5t-45 138.5zM183 -51l6 4h78l5 -4l-72 -152l-7 -3l-34 7l-5 6z" />
    <glyph glyph-name="circumflex" unicode="&#x2c6;" horiz-adv-x="502" 
d="M177 569l-55 18l-2 7l92 102l9 5h60l9 -5l92 -102l-2 -7l-55 -18h-7l-67 78l-67 -78h-7z" />
    <glyph glyph-name="caron" unicode="&#x2c7;" horiz-adv-x="502" 
d="M221 576l-9 5l-92 102l2 7l55 18h7l67 -78l67 78h7l55 -18l2 -7l-92 -102l-9 -5h-60z" />
    <glyph glyph-name="breve" unicode="&#x2d8;" horiz-adv-x="502" 
d="M251 569q-50 0 -84.5 29.5t-34.5 76.5q0 7 2 21l6 5h48l5 -5v-9q0 -26 14.5 -42t43.5 -16t43.5 16t14.5 42v9l5 5h48l6 -5q2 -14 2 -21q0 -47 -34.5 -76.5t-84.5 -29.5z" />
    <glyph glyph-name="dotaccent" unicode="&#x2d9;" horiz-adv-x="503" 
d="M210 608l-5 5v83l5 5h83l5 -5v-83l-5 -5h-83z" />
    <glyph glyph-name="ring" unicode="&#x2da;" horiz-adv-x="502" 
d="M251 569q-33 0 -57 17.5t-24 48.5v13q0 31 24 48t57 17t57 -17t24 -48v-13q0 -31 -24 -48.5t-57 -17.5zM251 608q37 0 37 33t-37 33t-37 -33t37 -33z" />
    <glyph glyph-name="ogonek" unicode="&#x2db;" horiz-adv-x="504" 
d="M165 -122q0 29 16 56t38.5 44.5t45.5 30.5t39 19l16 6l19 -14q-1 -1 -21.5 -20t-27 -26.5t-20 -24t-19 -30t-5.5 -26.5q0 -26 16 -40t55 -16l5 -5l-11 -46l-5 -5q-62 0 -101.5 26t-39.5 71z" />
    <glyph glyph-name="tilde" unicode="&#x2dc;" horiz-adv-x="502" 
d="M147 592l-36 27v7q21 35 42 50.5t53 15.5q30 0 57 -23t41 -23q15 0 48 33l7 2l36 -27v-7q-37 -66 -97 -66q-28 0 -56 22.5t-41 22.5q-18 0 -47 -32z" />
    <glyph glyph-name="hungarumlaut" unicode="&#x2dd;" horiz-adv-x="503" 
d="M246 586l-1 6l61 105l7 4h101l5 -4l-123 -128h-6zM173 573l-48 18l-1 6l51 100l7 4h65l5 -4l-72 -124h-7z" />
    <glyph glyph-name="Delta" unicode="&#x394;" horiz-adv-x="603" 
d="M81 343l-3 7v30l3 7l398 227l6 -2l32 -56l-2 -7l-14 -13l-65 -171l65 -171l14 -13l2 -7l-32 -56l-6 -2z" />
    <glyph glyph-name="Delta" unicode="&#x2206;" horiz-adv-x="603" 
d="M81 343l-3 7v30l3 7l398 227l6 -2l32 -56l-2 -7l-14 -13l-65 -171l65 -171l14 -13l2 -7l-32 -56l-6 -2z" />
    <glyph glyph-name="Omega" unicode="&#x3a9;" horiz-adv-x="528" 
d="M242 -39l-227 398l2 6l56 32l7 -2l13 -14l129 -65v354l5 5h74l5 -5v-354l129 65l13 14l7 2l56 -32l2 -6l-227 -398l-7 -3h-30z" />
    <glyph glyph-name="Omega" unicode="&#x2126;" horiz-adv-x="528" 
d="M242 -39l-227 398l2 6l56 32l7 -2l13 -14l129 -65v354l5 5h74l5 -5v-354l129 65l13 14l7 2l56 -32l2 -6l-227 -398l-7 -3h-30z" />
    <glyph glyph-name="pi" unicode="&#x3c0;" horiz-adv-x="770" 
d="M52 276v119q0 95 50.5 163t124.5 98.5t158 30.5q86 0 159.5 -30.5t123.5 -98.5t50 -163v-119q0 -72 -28.5 -129.5t-76.5 -92.5t-106.5 -53t-121.5 -18q-84 0 -158 30.5t-124.5 99t-50.5 163.5zM117 296q0 -84 38 -142t97 -83t133 -25q117 0 192.5 62.5t75.5 187.5v78
q0 125 -75.5 187.5t-192.5 62.5q-116 0 -192 -62.5t-76 -187.5v-78zM278 135v398l5 5h111q152 0 152 -125q0 -55 -36 -93.5t-92 -38.5q-26 0 -44.5 8.5t-23.5 16.5l-6 9l3 -33v-147l-5 -5h-59zM347 343q19 -6 49 -6q34 0 56.5 18.5t22.5 56.5q0 66 -81 66h-47v-135z" />
    <glyph glyph-name="uni1E9E" unicode="&#x1e9e;" horiz-adv-x="593" 
d="M76 5v489q0 84 45 132.5t119 48.5h242l5 -5v-49l-132 -224q86 -6 143 -56t57 -142q0 -98 -62 -148.5t-153 -50.5h-90l-5 5l12 69l6 5h65q60 0 102.5 29.5t42.5 90.5t-42.5 90t-102.5 29h-66l-5 5l-12 50l137 224h-137q-31 0 -59 -26t-28 -84v-482l-5 -5h-72z" />
    <glyph glyph-name="endash" unicode="&#x2013;" horiz-adv-x="664" 
d="M88 222l-5 5v63l5 5h492l4 -5l-12 -63l-6 -5h-478z" />
    <glyph glyph-name="emdash" unicode="&#x2014;" horiz-adv-x="862" 
d="M88 222l-5 5v63l5 5h690l4 -5l-12 -63l-6 -5h-676z" />
    <glyph glyph-name="quoteleft" unicode="&#x2018;" horiz-adv-x="218" 
d="M43 494l-3 5l86 177l7 4l38 -10l4 -7l-29 -164l-7 -5h-96z" />
    <glyph glyph-name="quoteright" unicode="&#x2019;" horiz-adv-x="203" 
d="M88 489l-38 10l-4 7l29 164l7 5h96l3 -5l-86 -177z" />
    <glyph glyph-name="quotesinglbase" unicode="&#x201a;" horiz-adv-x="237" 
d="M42 -75l29 164l7 5h96l3 -5l-86 -177l-7 -4l-38 10z" />
    <glyph glyph-name="quotedblleft" unicode="&#x201c;" horiz-adv-x="372" 
d="M197 494l-3 5l86 177l7 4l38 -10l4 -7l-29 -169h-103zM43 494l-3 5l86 177l7 4l38 -10l4 -7l-29 -164l-7 -5h-96z" />
    <glyph glyph-name="quotedblright" unicode="&#x201d;" horiz-adv-x="357" 
d="M204 499l-4 7l29 164l7 5h96l3 -5l-86 -177l-7 -4zM88 489l-38 10l-4 7l29 164l7 5h96l3 -5l-86 -177z" />
    <glyph glyph-name="quotedblbase" unicode="&#x201e;" horiz-adv-x="391" 
d="M197 -74l29 164l7 5h96l3 -5l-86 -177l-7 -4l-38 10zM43 -74l29 164l7 5h96l3 -5l-86 -177l-7 -4l-38 10z" />
    <glyph glyph-name="dagger" unicode="&#x2020;" horiz-adv-x="442" 
d="M175 -189v596h-130l-5 5v62l5 5h130v186l5 6l70 10l5 -4v-198h147l5 -5l-19 -62l-7 -5h-126v-526l-20 -101l-6 -7l-49 29z" />
    <glyph glyph-name="daggerdbl" unicode="&#x2021;" horiz-adv-x="481" 
d="M59 20v62l5 5h130v320h-130l-5 5v62l5 5h130v186l5 6l70 10l5 -4v-198h147l5 -5l-19 -62l-7 -5h-126v-320h147l5 -5l-19 -62l-7 -5h-126v-134l-20 -101l-6 -7l-49 29l-5 9v204h-130z" />
    <glyph glyph-name="bullet" unicode="&#x2022;" horiz-adv-x="488" 
d="M74 230v36q0 71 51 111t118 40q68 0 119.5 -40t51.5 -111v-36q0 -72 -51 -110.5t-120 -38.5q-68 0 -118.5 38.5t-50.5 110.5z" />
    <glyph glyph-name="ellipsis" unicode="&#x2026;" horiz-adv-x="790" 
d="M621 5v94l5 5h92l5 -5v-94l-5 -5h-92zM344 5v94l5 5h92l5 -5v-94l-5 -5h-92zM67 5v94l5 5h92l5 -5v-94l-5 -5h-92z" />
    <glyph glyph-name="perthousand" unicode="&#x2030;" horiz-adv-x="1005" 
d="M177 365q-53 0 -86 28t-33 79v102q0 51 33 79.5t86 28.5t85.5 -28.5t32.5 -79.5v-102q0 -51 -32.5 -79t-85.5 -28zM60 5l504 674l7 2l62 -19l2 -5l-490 -655l-6 -2h-77zM177 423q59 0 59 60v82q0 58 -59 58q-60 0 -60 -58v-82q0 -60 60 -60zM712 97v101q0 52 33 80t86 28
q54 0 87 -28t33 -80v-101q0 -51 -33.5 -80t-86.5 -29t-86 29t-33 80zM411 97v101q0 52 33 80t86 28q54 0 87 -28t33 -80v-101q0 -51 -33.5 -80t-86.5 -29t-86 29t-33 80zM771 105q0 -58 60 -58q59 0 59 58v83q0 59 -59 59q-60 0 -60 -59v-83zM470 105q0 -58 60 -58
q59 0 59 58v83q0 59 -59 59q-60 0 -60 -59v-83z" />
    <glyph glyph-name="guilsinglleft" unicode="&#x2039;" horiz-adv-x="311" 
d="M170 55l-126 189v7l126 190l9 6h75l6 -7l-130 -192l130 -192l-6 -7h-75z" />
    <glyph glyph-name="guilsinglright" unicode="&#x203a;" horiz-adv-x="311" 
d="M57 49l-6 7l130 192l-130 192l6 7h75l9 -6l126 -190v-7l-126 -189l-9 -6h-75z" />
    <glyph glyph-name="fraction" unicode="&#x2044;" horiz-adv-x="645" 
d="M35 5l504 674l7 2l62 -19l2 -5l-490 -655l-6 -2h-77z" />
    <glyph glyph-name="Euro" unicode="&#x20ac;" horiz-adv-x="593" 
d="M58 178l-5 5v60l5 5h63v68h-63l-5 5v60l5 5h66q14 96 81.5 147.5t172.5 51.5q43 0 81 -10t55 -19.5t24 -16.5l1 -7l-22 -56l-8 -1q-5 4 -15 10.5t-43 17t-69 10.5q-68 0 -114 -33t-61 -94h284l4 -5l-16 -60l-6 -5h-272v-68h256l4 -5l-15 -60l-6 -5h-231q17 -57 63 -87.5
t111 -30.5q79 0 136 43l8 -1l20 -56l-1 -7q-7 -7 -24.5 -17.5t-56.5 -22t-82 -11.5q-104 0 -173 49t-85 141h-67z" />
    <glyph glyph-name="trademark" unicode="&#x2122;" horiz-adv-x="785" 
d="M352 352l-5 5v313l5 5l48 6l7 -5l126 -226l124 220l5 5l49 6l7 -5v-319l-5 -5h-53l-4 5v195l-95 -167l-7 -5h-45l-6 5l-94 171v-199l-5 -5h-52zM137 352l-5 5v261h-105l-5 5v47l5 5h279l4 -5l-13 -47l-6 -5h-97v-261l-5 -5h-52z" />
    <glyph glyph-name="partialdiff" unicode="&#x2202;" horiz-adv-x="787" 
d="M40 213l-5 5v74l5 5h354l-65 129l-14 13l-2 7l32 56l6 2l398 -227l3 -7v-30l-3 -7l-398 -227l-6 2l-32 56l2 7l14 13l65 129h-354z" />
    <glyph glyph-name="product" unicode="&#x220f;" horiz-adv-x="835" 
d="M62 323l-5 5v74l5 5h354l-65 129l-14 13l-2 7l32 56l6 2l398 -227l3 -7v-30l-3 -7l-398 -227l-6 2l-32 56l2 7l14 13l65 129h-354z" />
    <glyph glyph-name="summation" unicode="&#x2211;" horiz-adv-x="835" 
d="M64 343l-3 7v30l3 7l398 227l6 -2l32 -56l-2 -7l-14 -13l-65 -129h354l5 -5v-74l-5 -5h-354l65 -129l14 -13l2 -7l-32 -56l-6 -2z" />
    <glyph glyph-name="minus" unicode="&#x2212;" 
d="M99 219l-5 5v69l5 5h358l4 -5l-18 -69l-6 -5h-338z" />
    <glyph glyph-name="radical" unicode="&#x221a;" horiz-adv-x="523" 
d="M49 64l2 7l14 13l65 171l-65 171l-14 13l-2 7l32 56l6 2l398 -227l3 -7v-30l-3 -7l-398 -227l-6 2z" />
    <glyph glyph-name="infinity" unicode="&#x221e;" horiz-adv-x="492" 
d="M194 191l-10 346l5 6l78 12l5 -4l-8 -193q39 7 60.5 38t21.5 76v71q0 53 -29.5 81t-83.5 28q-55 0 -86.5 -27t-31.5 -82l-7 -3l-68 14l-5 6q0 81 56 126.5t142 45.5t141.5 -45.5t55.5 -126.5v-105q0 -74 -47 -121t-122 -55l-3 -88l-5 -5h-54zM177 5v91l5 5h89l5 -5v-91
l-5 -5h-89z" />
    <glyph glyph-name="integral" unicode="&#x222b;" horiz-adv-x="568" 
d="M242 5v354l-129 -65l-13 -14l-7 -2l-56 32l-2 6l227 398l7 3h30l7 -3l227 -398l-2 -6l-56 -32l-7 2l-13 14l-129 65v-354l-5 -5h-74z" />
    <glyph glyph-name="approxequal" unicode="&#x2248;" horiz-adv-x="605" 
d="M96 304l-34 52l1 7q66 62 140 62q50 0 107.5 -35t90.5 -35q48 0 100 46l7 -1l34 -52l-1 -7q-66 -62 -140 -62q-50 0 -107.5 35t-90.5 35q-48 0 -100 -46zM96 105l-34 52l1 7q66 62 140 62q50 0 107.5 -35t90.5 -35q48 0 100 46l7 -1l34 -52l-1 -7q-66 -62 -140 -62
q-50 0 -107.5 35t-90.5 35q-48 0 -100 -46z" />
    <glyph glyph-name="notequal" unicode="&#x2260;" 
d="M117 49l-2 5l47 80h-63l-5 5v63l5 5h107l61 103h-168l-5 5v63l5 5h211l59 99l7 2l57 -9l2 -5l-52 -87h70l4 -5l-17 -63l-6 -5h-94l-61 -103h152l4 -5l-17 -63l-6 -5h-177l-56 -95l-6 -2z" />
    <glyph glyph-name="lessequal" unicode="&#x2264;" 
d="M59 248l-3 8l16 77l6 6l391 204l5 -4v-71l-5 -7l-331 -172l331 -164l5 -7v-71l-5 -4zM112 -31l5 5h352l5 -5v-63l-5 -5h-352l-5 5v63z" />
    <glyph glyph-name="greaterequal" unicode="&#x2265;" 
d="M76 46v71l5 7l331 172l-331 164l-5 7v71l5 4l410 -205l3 -8l-16 -77l-6 -6l-391 -204zM76 -31l5 5h349l5 -5l-1 -63l-5 -5h-348l-5 5v63z" />
    <glyph glyph-name="lozenge" unicode="&#x25ca;" horiz-adv-x="584" 
d="M116 118l-32 56l2 7l14 13l65 171l-65 171l-14 13l-2 7l32 56l6 2l398 -227l3 -7v-30l-3 -7l-398 -227z" />
    <glyph glyph-name="f.alt" horiz-adv-x="324" 
d="M101 -189v611h-65l-5 5v62l5 5h65v105q0 78 53 121t127 43l4 -5v-66l-4 -5q-43 0 -71.5 -21.5t-28.5 -62.5v-109h157l5 -5l-19 -62l-7 -5h-136v-541l-20 -101l-6 -7l-49 29z" />
    <glyph glyph-name="f_f.alt" horiz-adv-x="605" 
d="M101 -189v611h-65l-5 5v62l5 5h65v68q0 79 49 121.5t122 42.5t131 -43q23 39 66 59.5t93 20.5l4 -5v-66l-4 -5q-43 0 -71.5 -21.5t-28.5 -62.5v-109h157l5 -5l-19 -62l-7 -5h-136v-541l-20 -101l-6 -7l-49 29l-5 9v611h-201v-541l-20 -101l-6 -7l-49 29zM181 494h201v100
q-5 8 -14 18.5t-36 24t-60 13.5q-42 0 -66.5 -21t-24.5 -63v-72z" />
    <glyph glyph-name="apple" horiz-adv-x="1172" 
d="M63 128v278l126 71v151l265 142l134 -71l132 71l265 -142v-151l124 -71v-278l-124 -72v-152l-265 -141l-132 71l-134 -71l-265 141v152zM115 142l114 -64v-139l238 -126l121 66l118 -66l238 126v139l114 64v249l-114 66v136l-238 126l-118 -64l-121 64l-238 -126v-136
l-114 -66v-249zM164 154v225l99 58v123l215 114l110 -59l107 59l214 -114v-123l100 -58v-225l-100 -60v-121l-214 -114l-107 58l-110 -58l-215 114v121zM450 5l4 -5h76l4 5v215h189l7 3l17 70l-2 6h-211v137h245l5 4v71l-5 5h-325l-4 -5v-506z" />
    <glyph glyph-name="zero.tab" 
d="M56 182v309q0 97 63.5 145.5t154.5 48.5t154.5 -48.5t63.5 -145.5v-309q0 -97 -63.5 -145.5t-154.5 -48.5t-154.5 48.5t-63.5 145.5zM138 201q0 -69 37.5 -104t98.5 -35t98.5 35t37.5 104v271q0 69 -37.5 104t-98.5 35t-98.5 -35t-37.5 -104v-271z" />
    <glyph glyph-name="one.tab" 
d="M67 5v64l5 5h162v527h-116l-6 5l-18 64l4 5h213l5 -5v-596h166l4 -5l-18 -64l-6 -5h-390z" />
    <glyph glyph-name="two.tab" 
d="M73 5l-10 44q0 34 33 76t80.5 83.5t94.5 85.5t80 95.5t33 100.5q0 52 -34.5 86.5t-86.5 34.5q-79 0 -135 -82h-7l-53 38l-1 8q3 4 8 11.5t23 26.5t38.5 33.5t55.5 26.5t73 12q81 0 142 -50t61 -145q0 -45 -22 -93t-54.5 -86t-72 -76.5t-73.5 -66.5t-58.5 -53.5
t-28.5 -40.5h322l4 -5l-17 -64l-6 -5h-385z" />
    <glyph glyph-name="three.tab" 
d="M53 103l1 8l51 38h7q2 -4 6.5 -9.5t19 -20.5t31 -26.5t43.5 -21t56 -9.5q58 0 99.5 34t41.5 91v14q0 56 -43 87t-122 31h-44l-4 5l17 64l6 5h25q148 0 148 109q0 56 -36 82.5t-93 26.5q-42 0 -77 -18.5t-50 -36.5l-14 -18h-8l-50 38l-1 7q2 4 7 11t23 24.5t39.5 31
t56.5 24.5t74 11q94 0 152.5 -48.5t58.5 -134.5q0 -46 -25 -88.5t-66 -59.5q49 -16 78.5 -54t29.5 -84v-41q0 -85 -65.5 -136t-154.5 -51q-44 0 -83 12t-62.5 29t-41 33.5t-24.5 28.5z" />
    <glyph glyph-name="four.tab" 
d="M43 180l-5 5l-17 51l311 431l6 4l62 10l5 -4v-423h124l4 -5l-18 -64l-6 -5h-104v-170l-5 -6l-72 -10l-5 4v182h-280zM126 254h197v241l2 34l-17 -29l-167 -228z" />
    <glyph glyph-name="five.tab" 
d="M53 103l1 8l51 38h7q2 -4 6 -9.5t19 -20.5t31.5 -26.5t44 -21t57.5 -9.5q56 0 98 34t42 90v29q0 56 -42 89.5t-98 33.5q-30 0 -59 -7t-43 -13l-14 -7h-5l-33 44v315l6 5h333l4 -5l-18 -64l-6 -5h-237v-197q36 8 74 8q88 0 154 -50.5t66 -135.5v-53q0 -84 -66 -134.5
t-154 -50.5q-44 0 -82.5 12t-62.5 29t-41.5 33.5t-25.5 28.5z" />
    <glyph glyph-name="six.tab" 
d="M62 182v307q0 85 65.5 140.5t157.5 55.5q39 0 74 -11.5t56.5 -27.5t38 -32t23.5 -28l7 -11v-7l-52 -39h-8q-2 3 -6 8.5t-17.5 20t-28.5 25t-38.5 19.5t-48.5 9q-59 0 -100 -32.5t-41 -104.5v-75l-6 -47q2 5 5.5 12t15 19.5t26.5 22t41.5 17t58.5 7.5q87 0 149 -49
t62 -148v-51q0 -97 -63 -145.5t-154 -48.5t-154 48.5t-63 145.5zM144 200q0 -68 37.5 -103t97.5 -35q61 0 98 34.5t37 103.5v15q0 68 -37 103.5t-96 35.5q-85 0 -137 -31v-123z" />
    <glyph glyph-name="seven.tab" 
d="M123 15l282 586h-340l-6 4l-20 65l3 5h450l4 -5l9 -39l-300 -635l-6 -3l-73 17z" />
    <glyph glyph-name="eight.tab" 
d="M58 182q0 53 29 100t77 63q-38 15 -64.5 56.5t-26.5 91.5q0 93 54.5 142.5t148.5 49.5q92 0 146 -49.5t54 -142.5q0 -50 -26 -91.5t-64 -56.5q48 -16 76.5 -63t28.5 -100q0 -97 -62 -145.5t-153 -48.5t-154.5 48.5t-63.5 145.5zM276 378q56 0 87.5 30.5t31.5 83.5
q0 56 -31 87.5t-88 31.5q-58 0 -89.5 -31.5t-31.5 -87.5q0 -53 31.5 -83.5t89.5 -30.5zM140 184q0 -58 38 -90t98 -32q59 0 96 32.5t37 89.5q0 56 -37.5 90t-95.5 34q-59 0 -97.5 -34t-38.5 -90z" />
    <glyph glyph-name="nine.tab" 
d="M66 98v7l52 39h8q2 -3 6 -8.5t17.5 -20t28.5 -25t38.5 -19.5t48.5 -9q59 0 100 32.5t41 104.5v75l6 47q-1 -3 -3.5 -8.5t-14 -19t-26.5 -23.5t-42.5 -18.5t-60.5 -8.5q-87 0 -149 49t-62 148v51q0 97 63 145.5t154 48.5t154 -48.5t63 -145.5v-307q0 -85 -65.5 -140.5
t-157.5 -55.5q-39 0 -74 11.5t-56.5 27.5t-38 32t-23.5 27zM269 319q85 0 137 31v123q0 68 -37.5 103t-97.5 35q-61 0 -98 -34.5t-37 -103.5v-15q0 -68 37 -103.5t96 -35.5z" />
    <glyph glyph-name="parenleft.cs" horiz-adv-x="280" 
d="M200 -70q-6 4 -15 12t-32.5 41t-41.5 75t-32.5 117.5t-14.5 163.5t14 162.5t34 117.5t40 74t34 43l14 11h7l40 -44l-1 -7q-4 -4 -11 -12.5t-24.5 -39.5t-31 -68.5t-24.5 -101t-11 -135.5t10.5 -135.5t26 -102.5t30.5 -67.5t25 -40.5l11 -12l-1 -7l-39 -43z" />
    <glyph glyph-name="parenright.cs" horiz-adv-x="280" 
d="M33 -19q4 4 11 12.5t25 39.5t31.5 68.5t24.5 101.5t11 136t-10.5 135t-25.5 102t-30 67.5t-26 40.5l-10 12l-1 7l40 44h7q6 -4 15 -12t32.5 -41.5t41.5 -75t32.5 -116.5t14.5 -163t-14 -163t-34 -118.5t-40 -74t-34 -41.5l-14 -12l-7 1l-39 43z" />
    <glyph glyph-name="bracketleft.cs" horiz-adv-x="321" 
d="M92 -53v783l5 5h172l4 -5l-19 -58l-6 -5h-79v-657h79l6 -5l19 -58l-4 -5h-172z" />
    <glyph glyph-name="bracketright.cs" horiz-adv-x="321" 
d="M67 5l6 5h79v657h-79l-6 5l-19 58l4 5h172l5 -5v-783l-5 -5h-172l-4 5z" />
    <glyph glyph-name="braceleft.cs" horiz-adv-x="399" 
d="M131 107v120q0 46 -20 73.5t-73 34.5l-4 5l18 60l7 5q42 11 57 36t15 67v67q0 75 50 119.5t137 44.5h23l4 -5l-18 -58l-6 -5q-53 0 -84 -28.5t-31 -85.5v-47q0 -51 -22 -89t-64 -55q86 -38 86 -135v-106q0 -58 31 -87t84 -29l6 -5l18 -58l-4 -5h-23q-87 0 -137 45.5
t-50 120.5z" />
    <glyph glyph-name="braceright.cs" horiz-adv-x="397" 
d="M72 4l6 5q53 0 84 29t31 87v106q0 97 86 135q-42 17 -64 55t-22 89v47q0 57 -31 85.5t-84 28.5l-6 5l-18 58l4 5h23q87 0 137 -44.5t50 -119.5v-67q0 -51 18.5 -73t72.5 -35l4 -7l-18 -57l-7 -5q-70 -20 -70 -104v-120q0 -75 -50 -120.5t-137 -45.5h-23l-4 5z" />
    <glyph glyph-name="bullet.cs" horiz-adv-x="446" 
d="M222 191q-68 0 -118.5 38.5t-50.5 110.5v36q0 71 51 111t118 40q68 0 119.5 -40t51.5 -111v-36q0 -72 -51 -110.5t-120 -38.5z" />
    <glyph glyph-name="hyphen.cs" horiz-adv-x="414" 
d="M83 314l-5 5v70l5 5h257l4 -5l-18 -70l-6 -5h-237z" />
    <glyph glyph-name="commaaccent" horiz-adv-x="188" 
d="M64 -51l6 4h78l5 -4l-72 -152l-7 -3l-34 7l-5 6z" />
    <glyph glyph-name="endash.cs" horiz-adv-x="653" 
d="M83 317l-5 5v63l5 5h492l4 -5l-12 -63l-6 -5h-478z" />
    <glyph glyph-name="emdash.cs" horiz-adv-x="851" 
d="M83 317l-5 5v63l5 5h690l4 -5l-12 -63l-6 -5h-676z" />
    <glyph glyph-name="j.alt" horiz-adv-x="231" 
d="M74 609l-5 5v83l5 5h83l5 -5v-83l-5 -5h-83zM75 -34v517l5 6l70 10l5 -4v-535q0 -70 -29 -116.5t-81 -62.5q-22 -7 -52 -7l-5 4l-12 64l4 4q25 0 39 7q56 27 56 113z" />
    <glyph glyph-name="jcircumflex.alt" horiz-adv-x="231" 
d="M40 569l-55 18l-2 7l92 102l9 5h60l9 -5l92 -102l-2 -7l-55 -18h-7l-67 78l-67 -78h-7zM75 -34v517l5 6l70 10l5 -4v-535q0 -70 -29 -116.5t-81 -62.5q-22 -7 -52 -7l-5 4l-12 64l4 4q25 0 39 7q56 27 56 113z" />
    <glyph glyph-name="dollar.cs" 
d="M71 53l-2 7l35 52l9 1q21 -18 62.5 -31.5t75.5 -14.5v244q-38 15 -60.5 26.5t-49.5 32t-40 51t-13 70.5q0 77 46 126t117 60v52l5 6l48 7l5 -4v-59q40 -2 76 -13.5t52 -20.5t23 -15l1 -7l-32 -53l-8 -1q-44 31 -112 36v-230q37 -15 60 -27t50 -33.5t40.5 -54t13.5 -74.5
q0 -85 -46.5 -130.5t-117.5 -57.5v-70l-5 -5h-48l-5 5v65q-42 1 -93.5 16.5t-86.5 43.5zM251 399v202q-39 -10 -60 -39t-21 -68q0 -60 81 -95zM309 74q82 24 82 111q0 65 -82 102v-213z" />
    <glyph glyph-name="cent.cs" 
d="M261 5v74q-80 9 -131 57t-51 136v131q0 88 51 135.5t131 55.5v74l5 6l48 7l5 -4v-82q125 -10 172 -98l-3 -6l-64 -27l-7 2q-29 46 -98 54v-367q69 8 98 55l7 2l63 -27l3 -6q-47 -89 -171 -98v-74l-5 -5h-48zM261 155v364q-46 -9 -73 -42.5t-27 -90.5v-97q0 -115 100 -134
z" />
    <glyph glyph-name="sterling.cs" 
d="M34 48l3 6q6 0 16 1t27.5 12t20.5 31l29 220h-82l-5 5v62l5 5h90l17 129q11 78 56.5 122t117.5 44q68 0 125 -52l1 -7l-33 -54l-7 -2l-5 4q-4 4 -12 10t-18.5 12.5t-24 10.5t-27.5 4q-32 0 -59 -26.5t-35 -83.5l-15 -111h162l4 -5l-18 -62l-6 -5h-151l-25 -197l-12 -50
l28 3q28 0 82.5 -22t85.5 -22q34 0 58.5 20.5t24.5 63.5q0 12 -3 25t-6 19l-3 7l4 6l62 12l7 -3q13 -41 13 -69q0 -75 -42.5 -115t-105.5 -40q-32 0 -95 22t-95 22q-20 0 -50.5 -4t-51.5 -8l-21 -5l-6 3z" />
    <glyph glyph-name="Euro.cs" 
d="M23 223l-5 5v60l5 5h73v83h-73l-5 5v60l5 5h73q3 115 72.5 177t184.5 62q43 0 81 -10t55 -19.5t24 -16.5l1 -7l-22 -63l-8 -1q-55 41 -127 41q-80 0 -127.5 -42t-51.5 -121h288l4 -5l-16 -60l-6 -5h-270v-83h250l4 -5l-15 -60l-6 -5h-233q6 -78 54.5 -118.5t125.5 -40.5
q75 0 136 46l8 -1l20 -63l-1 -7q-7 -7 -24.5 -17.5t-56.5 -22t-82 -11.5q-117 0 -188 61t-74 174h-73z" />
    <glyph glyph-name="yen.cs" 
d="M87 182l-5 5v60l5 5h155v44l-29 52h-126l-5 5v60l5 5h88l-135 245l5 7l82 11l6 -4l134 -266l16 -39l17 39l127 252l5 6l89 12l6 -4l-138 -259h112l4 -5l-17 -60l-6 -5h-131l-27 -52v-44h155l4 -5l-17 -60l-6 -5h-136v-177l-5 -5h-72l-5 5v177h-155z" />
    <glyph glyph-name="i.trk" horiz-adv-x="231" 
d="M74 608l-5 5v83l5 5h83l5 -5v-83l-5 -5h-83zM75 5v478l5 6l70 10l5 -4v-490l-5 -5h-70z" />
    <glyph glyph-name="HT" horiz-adv-x="249" 
 />
    <glyph glyph-name="space.alt" horiz-adv-x="275" 
 />
    <glyph glyph-name="comma.alt" horiz-adv-x="275" 
d="M55 -110l42 209l6 5h105l3 -5l-106 -224l-7 -4l-39 12z" />
    <glyph glyph-name="period.alt" horiz-adv-x="275" 
d="M87 5v94l5 5h92l5 -5v-94l-5 -5h-92z" />
    <glyph glyph-name="hyphen.alt" horiz-adv-x="275" 
d="M24 314l-5 5v70l5 5h232l4 -5l-18 -70l-6 -5h-212z" />
    </font>
</defs>
</svg>
